Last change 2020.03.01 14:20:52 / Time 2021.10.22 09:40:12

Music Database

My complete CD collection digitalized using differnent Linux tools in connection with remote CDDB databases.
These web pages give overview of content according to CDDB info.

cddb/2b102a04.txt

# xmcd CD database file generated by Grip 3.3.1
# 
# Track frame offsets:
#       183
#       37925
#       70225
#       99530
# 
# Disc length: 4140 seconds
# 
# Revision: 9
# Submitted via: Grip 3.3.1
# 
DISCID=2b102a04
DTITLE=Jean Michel Jarre / Waiting for Cousteau
DYEAR=1990
DGENRE=misc
DID3=52
TTITLE0=Calypso
TTITLE1=Calypso Part 2
TTITLE2=Calypso Part 3
TTITLE3=Waiting for Cousteau
EXTD= YEAR: 1990
EXTT0=
EXTT1=
EXTT2=
EXTT3=
PLAYORDER=