Last change 2020.03.01 14:20:52 / Time 2021.10.22 09:49:23

Music Database

My complete CD collection digitalized using differnent Linux tools in connection with remote CDDB databases.
These web pages give overview of content according to CDDB info.

cddb/2a0e8314.txt

# xmcd
#
# Track frame offsets:
#	150
#	13321
#	21674
#	34492
#	49462
#	64517
#	79868
#	95197
#	108875
#	122785
#	136948
#	149637
#	160324
#	177186
#	190823
#	207458
#	221486
#	237049
#	251341
#	264042
#
# Disc length: 3717 seconds
#
# Revision: 1
# Processed by: cddbd v1.5.2PL0 Copyright (c) Steve Scherf et al.
# Submitted via: audiograbber 1.83.01
#
DISCID=2a0e8314
DTITLE=Diverse / Dansktop Gennem 40 År - CD2
DYEAR=2008
DGENRE=Pop
TTITLE0=Birthe Kjær - Vi Maler Byen Rød
TTITLE1=John Mogensen - Fut I Fejemøget
TTITLE2=Bjørn Tidmand - Nu Ta'r Jeg Til Dublin
TTITLE3=Kandis - Flyv Prinsesse
TTITLE4=Tommy Seebach & Anette Heick - Du Skælder Mig Hele Tiden Ud
TTITLE5=Klaus & Servants - (Jeg Er På Vej Til) Herstedvester
TTITLE6=Susanne Lana - Hvis Tårer Var Guld
TTITLE7=Kim & Hallo - Hallo, Du Gamle Bavian
TTITLE8=Alice & Rita - Hallo Hr. General
TTITLE9=Bjørn & Okay - Jeg Husker Den Dag
TTITLE10=Keld & Hilda Heick - Do You Speak English
TTITLE11=Blue Boys - Døllefjelle-Musse
TTITLE12=Flemming Werge & Blue Notes - Uglevisen
TTITLE13=Svanerne - Balladen Om Fætter Hans
TTITLE14=Lars Stryg & Royal Strings - Aldrig Mer' Må Jeg Se Dig
TTITLE15=Jodle Birge - Tre Hvide Duer
TTITLE16=Johnny Reimar - Du Burde Købe Dig En Tyroler Hat
TTITLE17=Johnny Hansen - Godmorgen Verden
TTITLE18=Keld & The Donkeys - Vi Ska' Gå Hånd I Hånd
TTITLE19=Trine Dyrholm & Emil De Waal's Band - Avenuen
EXTD=
EXTT0=
EXTT1=
EXTT2=
EXTT3=
EXTT4=
EXTT5=
EXTT6=
EXTT7=
EXTT8=
EXTT9=
EXTT10=
EXTT11=
EXTT12=
EXTT13=
EXTT14=
EXTT15=
EXTT16=
EXTT17=
EXTT18=
EXTT19=
PLAYORDER=
.