Last change 2020.03.01 14:20:52 / Time 2020.09.24 09:17:30

Music Database

My complete CD collection digitalized using differnent Linux tools in connection with remote CDDB databases.
These web pages give overview of content according to CDDB info.

cddb/28127716.txt

# xmcd CD database file generated by Grip 3.3.1
# 
# Track frame offsets:
#       150
#       22785
#       38727
#       54155
#       68495
#       83207
#       101690
#       123335
#       141067
#       155387
#       173915
#       188717
#       201805
#       214497
#       227787
#       241745
#       256107
#       273382
#       289757
#       306917
#       322880
#       340035
# 
# Disc length: 4729 seconds
# 
# Revision: 2
# Submitted via: Grip 3.3.1
# 
DISCID=28127716
DTITLE=Misc. Artists / Disco Fever (CD1)
DYEAR=2000
DGENRE=rock
DID3=4
TTITLE0=Bee Gees - Tragedy
TTITLE1=Chic Le - Le Freak
TTITLE2=Barry White - You're the first, the last, my everything
TTITLE3=Donna Sumper - I Feel Love
TTITLE4=The Trammps - Disco Inferno
TTITLE5=Yarbrough & Peoples - Don't stop the music
TTITLE6=Earth, Wind & Fire - Boogie Wonderland
TTITLE7=Labelle - Lady Marmalade
TTITLE8=Wild Cherry - Play That Funky Music
TTITLE9=Chaka Khan - I'm Every Woman
TTITLE10=Gloria Gaynor - I Will Survive
TTITLE11=Yvonne Elliman - If I Can't Have You
TTITLE12=The Miracles - Love Machine
TTITLE13=Sly & The Family Stone - Dance To The Music
TTITLE14=Alicia Bridges - I Love The Nightlife
TTITLE15=Gladys Knight - Baby Don't Change Your Mind
TTITLE16=Candi Staton - Young Hearts Run Free
TTITLE17=The Emotions - Best Of My Love
TTITLE18=The Jacksons - Can You Feel It
TTITLE19=Stacey Lattislaw - Jump To The Beat
TTITLE20=Abba - Dancing Queen
TTITLE21=Isaac Hayes - Shaft
EXTD=\n
EXTT0=
EXTT1=
EXTT2=
EXTT3=
EXTT4=
EXTT5=
EXTT6=
EXTT7=
EXTT8=
EXTT9=
EXTT10=
EXTT11=
EXTT12=
EXTT13=
EXTT14=
EXTT15=
EXTT16=
EXTT17=
EXTT18=
EXTT19=
EXTT20=
EXTT21=
PLAYORDER=