Last change 2020.03.01 14:20:52 / Time 2021.12.01 15:09:50

Music Database

My complete CD collection digitalized using differnent Linux tools in connection with remote CDDB databases.
These web pages give overview of content according to CDDB info.

cddb/28112112.txt

# xmcd CD database file generated by Grip 3.3.1
# 
# Track frame offsets:
#       150
#       19142
#       35990
#       54402
#       74357
#       99287
#       117622
#       132882
#       146975
#       165507
#       185022
#       202785
#       217315
#       235902
#       259400
#       276627
#       293667
#       314482
# 
# Disc length: 4387 seconds
# 
# Revision: 1
# Submitted via: Grip 3.3.1
# 
DISCID=28112112
DTITLE=TV2 / Greatest - De unge år - CD2
DYEAR=1992
DGENRE=misc
DID3=13
TTITLE0=Fri som fuglen
TTITLE1=Tidens kvinder
TTITLE2=Stjernen i mit liv
TTITLE3=Turbo
TTITLE4=Nærmest lykkelig
TTITLE5=Det mørke Jylland
TTITLE6=Alt hva hun ville var at danse
TTITLE7=En sommerdag for alt for længe siden
TTITLE8=Kalundborg
TTITLE9=Kom ud og se far danser
TTITLE10=Jeg vil ha dig
TTITLE11=Romeos lykkelige dag
TTITLE12=Rejsen til Rio
TTITLE13=Baby blue
TTITLE14=Shit
TTITLE15=Tumpernes park
TTITLE16=The whole world's gonna speak german again
TTITLE17=Kys det nu
EXTD=
EXTT0=
EXTT1=
EXTT2=
EXTT3=
EXTT4=
EXTT5=
EXTT6=
EXTT7=
EXTT8=
EXTT9=
EXTT10=
EXTT11=
EXTT12=
EXTT13=
EXTT14=
EXTT15=
EXTT16=
EXTT17=
PLAYORDER=