Last change 2020.03.01 14:20:52 / Time 2021.10.18 12:07:40

Music Database

My complete CD collection digitalized using differnent Linux tools in connection with remote CDDB databases.
These web pages give overview of content according to CDDB info.

cddb/27117103.txt

# xmcd CD database file generated by Grip 3.3.1
# 
# Track frame offsets:
#       150
#       108225
#       215857
# 
# Disc length: 4467 seconds
# 
# Revision: 9
# Submitted via: Grip 3.3.1
# 
DISCID=27117103
DTITLE=Tibetan Incantations / The Meditative Sound Of Buddhist Chants
DYEAR=1998
DGENRE=misc
DID3=45
TTITLE0=Om Mani Padme Hum
TTITLE1=Mantra of Avalokiteshvara
TTITLE2=Om Mani Padme Hum (Alternate Version)
EXTD=Muzyka z Tybetu - mantry YEAR: 1998
EXTT0=
EXTT1=
EXTT2=
PLAYORDER=