Last change 2020.03.01 14:20:52 / Time 2021.10.22 08:56:02

Music Database

My complete CD collection digitalized using differnent Linux tools in connection with remote CDDB databases.
These web pages give overview of content according to CDDB info.

cddb/270e5214.txt

# xmcd
#
# Track frame offsets:
#	150
#	14325
#	28425
#	43200
#	56625
#	68250
#	82650
#	97650
#	110250
#	124050
#	137025
#	150375
#	163725
#	174600
#	190425
#	202350
#	220425
#	232350
#	245625
#	259425
#
# Disc length: 3668 seconds
#
# Revision: 0
# Processed by: cddbd v1.5.2PL0 Copyright (c) Steve Scherf et al.
# Submitted via: EasyCDDAExtractor 7.5.0.1
#
DISCID=270e5214
DTITLE=Various Artists / Alle Tiders Danske Schlager Hits - CD 02
DYEAR=2008
DGENRE=Pop
TTITLE0=Birthe Kjær / Pas På Den Knaldrøde Gummibåd
TTITLE1=Johnny Reimar / De Violer Du Plukker
TTITLE2=Grethe Sønck / Klaus Jørgen
TTITLE3=Peter Belli / Bliv Væk Fra Vort Kvarter
TTITLE4=Katy Bødtger / Så Går Vi Til Enkebal
TTITLE5=Grethe Klitgaard / Fiskerpigens Sang
TTITLE6=Dorthe Kollo / Velkommen Til Verden
TTITLE7=Dorthe Kollo & Johnny Reimar / To På Kvisten
TTITLE8=Susanne Lana / Hasta Manana
TTITLE9=Johnny Reimar / Bind Dit Gule Hårbånd
TTITLE10=Dorthe Kollo / Greven Af Luxembourg
TTITLE11=Bjørn & Okay / Den Gule Flyver
TTITLE12=Gustav Winckler / Blå Roser Til En Blond Pige
TTITLE13=Elisabeth Edberg / Eviva Espana
TTITLE14=Otto Brandenburg / Har Du Set Mona Lisa
TTITLE15=Dario Campeotto / Angelique
TTITLE16=Dorthe Kollo / Gid Du Var I Skanderborg
TTITLE17=Johnny Reimar / Når Jeg Tænker På Lille Alvilda
TTITLE18=Birthe Kjær / Arrivederci Franz
TTITLE19=Johnny Reimar / Du Burde Købe Dig En Tyrolerhat
EXTD=
EXTT0=
EXTT1=
EXTT2=
EXTT3=
EXTT4=
EXTT5=
EXTT6=
EXTT7=
EXTT8=
EXTT9=
EXTT10=
EXTT11=
EXTT12=
EXTT13=
EXTT14=
EXTT15=
EXTT16=
EXTT17=
EXTT18=
EXTT19=
PLAYORDER=
.