Last change 2020.03.01 14:20:52 / Time 2021.10.18 11:21:27

Music Database

My complete CD collection digitalized using differnent Linux tools in connection with remote CDDB databases.
These web pages give overview of content according to CDDB info.

cddb/26121714.txt

# xmcd CD database file generated by Grip 3.3.1
# 
# Track frame offsets:
#       150
#       16460
#       31129
#       48500
#       71810
#       103550
#       119641
#       139285
#       154983
#       173486
#       186768
#       202857
#       215450
#       232514
#       254417
#       272042
#       289316
#       305644
#       317996
#       332451
# 
# Disc length: 4633 seconds
# 
# Revision: 7
# Submitted via: Grip 3.3.1
# 
DISCID=26121714
DTITLE=Bob Marley / One Love
DYEAR=2001
DGENRE=misc
DID3=16
TTITLE0=Stir It Up
TTITLE1=Get Up, Stand Up
TTITLE2=I Shot The Sheriff
TTITLE3=Lively Up Yourself
TTITLE4=No Woman, No Cry
TTITLE5=Roots, Rock, Reggae
TTITLE6=Exodus
TTITLE7=Jamming
TTITLE8=Waiting In Vain
TTITLE9=Three Little Birds
TTITLE10=Turn Your Lights Down Low
TTITLE11=One Love/People Get Ready
TTITLE12=Is This Love
TTITLE13=Sun Is Shining
TTITLE14=So Much Trouble In The World
TTITLE15=Could You Be Loved
TTITLE16=Redemption Song
TTITLE17=Buffalo Soldier
TTITLE18=Iron Lion Zion
TTITLE19=I Know A Place
EXTD=
EXTT0=
EXTT1=
EXTT2=
EXTT3=
EXTT4=
EXTT5=
EXTT6=
EXTT7=
EXTT8=
EXTT9=
EXTT10=
EXTT11=
EXTT12=
EXTT13=
EXTT14=
EXTT15=
EXTT16=
EXTT17=
EXTT18=
EXTT19=
PLAYORDER=