Last change 2020.03.01 14:20:52 / Time 2021.12.01 14:57:42

Music Database

My complete CD collection digitalized using differnent Linux tools in connection with remote CDDB databases.
These web pages give overview of content according to CDDB info.

cddb/260f1c13.txt

# xmcd CD database file generated by Grip 3.3.1
# 
# Track frame offsets:
#       182
#       3367
#       23902
#       45157
#       64902
#       78677
#       95200
#       114460
#       132447
#       141677
#       157775
#       168727
#       182987
#       196835
#       215955
#       231252
#       247290
#       259910
#       276175
# 
# Disc length: 3870 seconds
# 
# Revision: 2
# Submitted via: Grip 3.3.1
# 
DISCID=260f1c13
DTITLE=De Black Fooss / Mer losse d'r Dom en Kolle
DYEAR=1977
DGENRE=misc
DID3=80
TTITLE0=Kölle, du uns Stadt am Rhein
TTITLE1=Mer losse d'r Dom en Kölle
TTITLE2=Leev Linda Lou
TTITLE3=Drink doch eine met
TTITLE4=Kumm zoröck noh Kölle
TTITLE5=Dat häste wirklich nit verdeent
TTITLE6=Die drei vun d'r Linie 2
TTITLE7=In unserem Veedel
TTITLE8=Heimweh nach Köln
TTITLE9=Lück wie ich un du
TTITLE10=Pänz, Pänz, Pänz
TTITLE11=Rof mer ens e Taxi
TTITLE12=De Mama kritt schon widder e Kind
TTITLE13=D'r Büb us "Moni's Bierbar"
TTITLE14=Wenn de Sonn schön schingk
TTITLE15=Dä kleine Laden
TTITLE16=Et Fossball-Leed
TTITLE17=En d'r Kayjass Nummer Null
TTITLE18=Einmol em Johr
EXTD=
EXTT0=
EXTT1=
EXTT2=
EXTT3=
EXTT4=
EXTT5=
EXTT6=
EXTT7=
EXTT8=
EXTT9=
EXTT10=
EXTT11=
EXTT12=
EXTT13=
EXTT14=
EXTT15=
EXTT16=
EXTT17=
EXTT18=
PLAYORDER=