Last change 2020.03.01 14:20:52 / Time 2021.10.22 09:00:19

Music Database

My complete CD collection digitalized using differnent Linux tools in connection with remote CDDB databases.
These web pages give overview of content according to CDDB info.

cddb/25125014.txt

# xmcd CD database file generated by Grip 3.3.1
# 
# Track frame offsets:
#       182
#       15287
#       35125
#       50647
#       65115
#       86365
#       99782
#       110795
#       126367
#       141640
#       160300
#       177297
#       197195
#       212005
#       229992
#       249967
#       268472
#       286740
#       308410
#       330967
# 
# Disc length: 4690 seconds
# 
# Revision: 1
# Submitted via: Grip 3.3.1
# 
DISCID=25125014
DTITLE=Various / The Synthesizer Collection CD1
DYEAR=1996
DGENRE=newage
DID3=33
TTITLE0=I Am What I Am
TTITLE1=All Night Long (All Night)
TTITLE2=Chi Mai (theme from David Lloyd George)
TTITLE3=Oxygene 4
TTITLE4=Toccata
TTITLE5=Axel F (Theme from Beverly Hills Cop)
TTITLE6=Miami Vice Theme
TTITLE7=Crockett's Theme (Nat West ad theme)
TTITLE8=Chariots Of Fire
TTITLE9=Private Dancer
TTITLE10=Everybody Wants To Rule The World
TTITLE11=A Kind Of Magic
TTITLE12=Invisible Touch
TTITLE13=Lady In Red
TTITLE14=(I Just) Died In Your Arms
TTITLE15=The Final Countdown
TTITLE16=Sadeness Pt 1
TTITLE17=With Or Without You
TTITLE18=Sledgehammer
TTITLE19=Vienna
EXTD=
EXTT0=
EXTT1=
EXTT2=
EXTT3=
EXTT4=
EXTT5=
EXTT6=
EXTT7=
EXTT8=
EXTT9=
EXTT10=
EXTT11=
EXTT12=
EXTT13=
EXTT14=
EXTT15=
EXTT16=
EXTT17=
EXTT18=
EXTT19=
PLAYORDER=