Last change 2020.03.01 14:20:52 / Time 2020.09.24 09:01:02

Music Database

My complete CD collection digitalized using differnent Linux tools in connection with remote CDDB databases.
These web pages give overview of content according to CDDB info.

cddb/2511f714.txt

# xmcd
#
# Track frame offsets:
#	182
#	18032
#	34940
#	51090
#	64467
#	83080
#	100757
#	122587
#	135157
#	156187
#	169960
#	188900
#	201720
#	218882
#	233850
#	250442
#	262042
#	279100
#	295817
#	313022
#
# Disc length: 4601 seconds
#
# Revision: 14
# Processed by: cddbd v1.5.2PL0 Copyright (c) Steve Scherf et al.
# Submitted via: audiograbber 1.83.01
#
DISCID=2511f714
DTITLE=Carpenters / Only Yesterday
DYEAR=1990
DGENRE=Vocal/Pop
TTITLE0=Yesterday Once More (Remix)
TTITLE1=Superstar (Remix)
TTITLE2=Rainy Days And Mondays (Remix)
TTITLE3=Top Of The World (Single Mix)
TTITLE4=Ticket To Ride
TTITLE5=Goodbye To Love (Remix)
TTITLE6=This Masquerade
TTITLE7=Hurting Each Other
TTITLE8=Solitaire
TTITLE9=We've Only Just Begun (Remix)
TTITLE10=Those Good Old Dreams
TTITLE11=Please Mr. Postman
TTITLE12=I Won't Last A Day Without You
TTITLE13=Touch Me When We're Dancing
TTITLE14=Jambalaya (On The Bayou)
TTITLE15=For All We Know
TTITLE16=All You Get From Love Is A Love Song
TTITLE17=(They Long To Be) Close To You
TTITLE18=Only Yesterday
TTITLE19=Calling Occupants Of Interplanetary Craft (The Recognised Anthem Of Wo
TTITLE19=rld Contact Day) (Remix)
EXTD= YEAR: 1990
EXTT0=
EXTT1=
EXTT2=
EXTT3=
EXTT4=
EXTT5=
EXTT6=
EXTT7=
EXTT8=
EXTT9=
EXTT10=
EXTT11=
EXTT12=
EXTT13=
EXTT14=
EXTT15=
EXTT16=
EXTT17=
EXTT18=
EXTT19=
PLAYORDER=
.