Last change 2020.03.01 14:20:52 / Time 2020.09.25 03:09:01

Music Database

My complete CD collection digitalized using differnent Linux tools in connection with remote CDDB databases.
These web pages give overview of content according to CDDB info.

cddb/24128514.txt

# xmcd CD database file
# Generated: Sun Feb  7 16:43:01 2010 by WSPse's MP3c
#
# Track frame offsets:
#       150
#       16425
#       32025
#       48975
#       64875
#       83625
#       95475
#       113400
#       128625
#       146925
#       162150
#       178725
#       196125
#       211650
#       231825
#       250950
#       269850
#       287925
#       311325
#       329550
#
# Disc length: 4743 seconds
#
# Revision: 2
# Submitted via: MP3c 0.29
#   WSPse pp3c-0.29 (NLS) - ENGLISH (Sep 14 2004) Default:OGG
#
DISCID=24128514
DTITLE=Rocazino / Det Bedste CD1
TTITLE0=Ridder Lykke
TTITLE1=Elsk Mig I Nat
TTITLE2=Sejle Med Dig
TTITLE3=Dine Oejne Er Saa Blaa
TTITLE4=Kong Frost
TTITLE5=1, 2, 3
TTITLE6=Haabet Igen
TTITLE7=Jeg Er Din Elskede
TTITLE8=Rul Natten Ind
TTITLE9=Jordskaelv
TTITLE10=Vild Og Voldsom
TTITLE11=Paris
TTITLE12=Sekunder
TTITLE13=Hvad Forlanger Du Mer'
TTITLE14=Hallo Hallo
TTITLE15=Columbia
TTITLE16=Danse Danse
TTITLE17=Unge Hjerter
TTITLE18=En For Alle
TTITLE19=Mere Politi
EXTD=
EXTT0=
EXTT1=
EXTT2=
EXTT3=
EXTT4=
EXTT5=
EXTT6=
EXTT7=
EXTT8=
EXTT9=
EXTT10=
EXTT11=
EXTT12=
EXTT13=
EXTT14=
EXTT15=
EXTT16=
EXTT17=
EXTT18=
EXTT19=
PLAYORDER=