Last change 2020.03.01 14:20:52 / Time 2021.12.01 14:36:33

Music Database

My complete CD collection digitalized using differnent Linux tools in connection with remote CDDB databases.
These web pages give overview of content according to CDDB info.

cddb/2312b913.txt

# xmcd CD database file generated by Grip 3.3.1
# 
# Track frame offsets:
#       150
#       18746
#       35560
#       51903
#       68950
#       86236
#       108115
#       128107
#       149323
#       171573
#       188725
#       208033
#       227195
#       247869
#       264994
#       282527
#       302361
#       322468
#       342174
# 
# Disc length: 4795 seconds
# 
# Revision: 8
# Submitted via: Grip 3.3.1
# 
DISCID=2312b913
DTITLE=Eurythmics / Ultimate Collection
DYEAR=2005
DGENRE=newage
DID3=13
TTITLE0=I've Got A Life
TTITLE1=Love Is A Stranger
TTITLE2=Sweet Dreams (Are Made Of This)
TTITLE3=Who's That Girl?
TTITLE4=Right By Your Side
TTITLE5=Here Comes The Rain Again
TTITLE6=Would I Lie To You?
TTITLE7=There Must Be An Angel (Playing With My Heart)
TTITLE8=Sisters Are Doin' It For Themselves
TTITLE9=It's Alright (Baby's Coming Back)
TTITLE10=When Tomorrow Comes
TTITLE11=Thorn In My Side
TTITLE12=The Miracle Of Love
TTITLE13=Missionary Man
TTITLE14=You Have Placed A Chill In My Heart
TTITLE15=I Need A Man
TTITLE16=I Saved The World Today
TTITLE17=17 Again
TTITLE18=Was It Just Another Love Affair?
EXTD= YEAR: 2005
EXTT0=
EXTT1=
EXTT2=
EXTT3=
EXTT4=
EXTT5=
EXTT6=
EXTT7=
EXTT8=
EXTT9=
EXTT10=
EXTT11=
EXTT12=
EXTT13=
EXTT14=
EXTT15=
EXTT16=
EXTT17=
EXTT18=
PLAYORDER=