Last change 2020.03.01 14:20:52 / Time 2020.09.24 09:49:28

Music Database

My complete CD collection digitalized using differnent Linux tools in connection with remote CDDB databases.
These web pages give overview of content according to CDDB info.

cddb/2210d113.txt

# xmcd CD database file generated by Grip 3.3.1
# 
# Track frame offsets:
#       150
#       19162
#       37305
#       55440
#       71760
#       87765
#       104620
#       121820
#       136195
#       157052
#       169035
#       186200
#       202685
#       220890
#       238230
#       252847
#       266275
#       284725
#       297767
# 
# Disc length: 4307 seconds
# 
# Revision: 6
# Submitted via: Grip 3.3.1
# 
DISCID=2210d113
DTITLE=John Denver / The Rocky Mountain Collection CD2
DYEAR=1996
DGENRE=country
DID3=2
TTITLE0=Fly Away
TTITLE1=Looking For Space
TTITLE2=Windsong
TTITLE3=Calypso
TTITLE4=I'm Sorry
TTITLE5=Like A Sad Song
TTITLE6=Come And Let Me Look In Your Eyes
TTITLE7=How Can I Leave You Again
TTITLE8=Thirsty Boots
TTITLE9=It Amazes Me
TTITLE10=I Want You Live
TTITLE11=Autograph
TTITLE12=Some Days Are Diamonds (Some Days Are Stones)
TTITLE13=Season Of The Heart
TTITLE14=Shanghai Breezes
TTITLE15=Perhaps Love (With Placido Domingo)
TTITLE16=Wild Montana Skies (With Emmylou Harris)
TTITLE17=Love Again
TTITLE18=Flying For Me
EXTD=
EXTT0=
EXTT1=
EXTT2=
EXTT3=
EXTT4=
EXTT5=
EXTT6=
EXTT7=
EXTT8=
EXTT9=
EXTT10=
EXTT11=
EXTT12=
EXTT13=
EXTT14=
EXTT15=
EXTT16=
EXTT17=
EXTT18=
PLAYORDER=