Last change 2020.03.01 14:20:52 / Time 2020.09.24 09:13:01

Music Database

My complete CD collection digitalized using differnent Linux tools in connection with remote CDDB databases.
These web pages give overview of content according to CDDB info.

cddb/2210ba13.txt

# xmcd CD database file generated by Grip 3.3.1
# 
# Track frame offsets:
#       150
#       18350
#       36577
#       47987
#       62802
#       82352
#       99435
#       114690
#       131535
#       146865
#       157135
#       176780
#       204112
#       221450
#       241617
#       255095
#       271302
#       282250
#       298025
# 
# Disc length: 4284 seconds
# 
# Revision: 2
# Submitted via: Grip 3.3.1
# 
DISCID=2210ba13
DTITLE=Walkers / Greatest Hits CD2
DYEAR=2000
DGENRE=misc
DID3=13
TTITLE0=Sha-La-La-La - La (Pop 2000 Mix)
TTITLE1=Amore Mi
TTITLE2=Little Kitty (Big 8 Mix)
TTITLE3=Do The Yo - Yo (Shafty Mix)
TTITLE4=If I Could
TTITLE5=Strip Tease (Trance Mix)
TTITLE6=Saving My Kisses For Saturday
TTITLE7=This Boys This Girls (GM Mix)
TTITLE8=Sunny Honey Days In Terreno (Old Days Mix)
TTITLE9=Bang-Shang-A - Lang
TTITLE10=Face The Reality (Ambient Mix)
TTITLE11=Sha-La-La-La - La (W2000 Mix)
TTITLE12=Torben Lenager & Peter Peter - Babies Ablaze
TTITLE13=Torben Lenager - I Wanna Go Back
TTITLE14=Torbenders - Fire
TTITLE15=Torben Lenager - Let Me Be Loved
TTITLE16=Torben Lenager - En Kort Sommer
TTITLE17=Torben Lenager - Vi Holder Fest
TTITLE18=Sha-La-La-La - La ( Pasta Mix)
EXTD=\nPhilips, Universal 542 342-2\n
EXTT0=Cd 2
EXTT1=Cd 2
EXTT2=Cd 2
EXTT3=Cd 2
EXTT4=Cd 2
EXTT5=Cd 2
EXTT6=Cd 2
EXTT7=Cd 2
EXTT8=Cd 2
EXTT9=Cd 2
EXTT10=Cd 2
EXTT11=Cd 2
EXTT12=Cd 2
EXTT13=Cd 2
EXTT14=Cd 2
EXTT15=Cd 2
EXTT16=Cd 2
EXTT17=Cd 2
EXTT18=Cd 2
PLAYORDER=