Last change 2020.03.01 14:20:52 / Time 2021.10.22 08:41:18

Music Database

My complete CD collection digitalized using differnent Linux tools in connection with remote CDDB databases.
These web pages give overview of content according to CDDB info.

cddb/21115814.txt

# xmcd CD database file generated by Grip 3.0.7
# 
# Track frame offsets:
#       150
#       16246
#       46268
#       58588
#       74109
#       87736
#       99297
#       119951
#       137490
#       150039
#       164762
#       177670
#       191626
#       206792
#       235531
#       251915
#       266855
#       285492
#       300327
#       315877
# 
# Disc length: 4442 seconds
# 
# Revision: 1
# Submitted via: Grip 3.0.7
# 
DISCID=21115814
DTITLE=Various Artists / One Hit Wonders - CD3
DYEAR=
DGENRE=misc
DID3=12
TTITLE0=Cats / One Way Wind
TTITLE1=Focus / Hocus Pocus
TTITLE2=Lieutenant Pigeon / Mouldy Old Dough
TTITLE3=Hurricane Smith / Oh Babe What Would You Say
TTITLE4=Daniel Boone / Beautiful Sunday
TTITLE5=Hot Butter / Popcorn
TTITLE6=Timmy Thomas / Why Can't We Live Together
TTITLE7=Lynsey de Paul / Sugar Me
TTITLE8=New York City / I'm Doin' Fine Now
TTITLE9=Three Degrees / Dirty Old Man
TTITLE10=Blue Suede / Hooked On A Feeling
TTITLE11=Barry Blue / Dancing On A Saturday Night
TTITLE12=Boris Pickett / Monster Mash
TTITLE13=Golden Earring / Radar Love
TTITLE14=Cunningham / Norma Jean Wants To Be A Movie Star
TTITLE15=George McCrae / Rock Your Baby
TTITLE16=Ralph McTell / Streets of London
TTITLE17=Carl Douglas / Kung Fu Fighting
TTITLE18=Andy Kim / Rock Me Gently
TTITLE19=Disco Tex and the Sex / O-Lettes
EXTD=
EXTT0=
EXTT1=
EXTT2=
EXTT3=
EXTT4=
EXTT5=
EXTT6=
EXTT7=
EXTT8=
EXTT9=
EXTT10=
EXTT11=
EXTT12=
EXTT13=
EXTT14=
EXTT15=
EXTT16=
EXTT17=
EXTT18=
EXTT19=
PLAYORDER=