Last change 2020.03.01 14:20:52 / Time 2021.10.22 09:10:20

Music Database

My complete CD collection digitalized using differnent Linux tools in connection with remote CDDB databases.
These web pages give overview of content according to CDDB info.

cddb/200e4512.txt

# xmcd CD database file generated by Grip 3.0.4
# 
# Track frame offsets:
#       150
#       16267
#       36012
#       52495
#       68890
#       81460
#       102627
#       118232
#       126417
#       140227
#       149370
#       168455
#       182152
#       200090
#       213560
#       232787
#       248767
#       262992
# 
# Disc length: 3655 seconds
# 
# Revision: 3
# Submitted via: Grip 3.0.4
# 
DISCID=200e4512
DTITLE=De Black Fooss / Luck Wie Ich Un Du (CD1)
DYEAR=1997
DGENRE=misc
DID3=12
TTITLE0=Luck wie ich un du
TTITLE1=Drink doch eine met
TTITLE2=Dat haste wirklich nit verdeent
TTITLE3=Do beste fies op et Fottche jefalle
TTITLE4=Et Fossball-Leed
TTITLE5=Leev Linda Lou
TTITLE6=Warum gibt's kein Lied
TTITLE7=Schafchenwolken
TTITLE8=De Mama kritt schon widder e Kind
TTITLE9=Heimweh nach Koln
TTITLE10=D'r Bub us ''Moni's Bierbar''
TTITLE11=Sitt doch nett zoenander
TTITLE12=In unserem Veedel
TTITLE13=Annemarie
TTITLE14=Die drei vun d'r Linie 2
TTITLE15=Da kleine Laden
TTITLE16=Rof mer ens e Taxi
TTITLE17=Ibn dibn dab
EXTD=ID3G: 12
EXTT0=
EXTT1=
EXTT2=
EXTT3=
EXTT4=
EXTT5=
EXTT6=
EXTT7=
EXTT8=
EXTT9=
EXTT10=
EXTT11=
EXTT12=
EXTT13=
EXTT14=
EXTT15=
EXTT16=
EXTT17=
PLAYORDER=