Last change 2020.03.01 14:20:52 / Time 2020.09.25 04:22:59

Music Database

My complete CD collection digitalized using differnent Linux tools in connection with remote CDDB databases.
These web pages give overview of content according to CDDB info.

cddb/1f11f612.txt

# xmcd CD database file generated by Grip 3.2.0
# 
# Track frame offsets:
#       150
#       21208
#       38152
#       62051
#       80807
#       100892
#       121973
#       139409
#       157219
#       171034
#       190135
#       205894
#       224179
#       244337
#       261958
#       281548
#       299387
#       319545
# 
# Disc length: 4600 seconds
# 
# Revision: 15
# Submitted via: Grip 3.2.0
# 
DISCID=1f11f612
DTITLE=Various Artists / 80's - CD4
DYEAR=1998
DGENRE=misc
DID3=13
TTITLE0=Feargal Sharkey / A Good Heart
TTITLE1=Samantha Fox / Touch Me (I Want Your Body)
TTITLE2=Sandra / In The Heat Of The Night
TTITLE3=Billy Ocean / When The Going Gets Tough
TTITLE4=Human League / Human
TTITLE5=Cutting Crew / (I Just) Died In Your Arms Tonight
TTITLE6=Spandau Ballet / Gold
TTITLE7=Boy George / Everything I Own
TTITLE8=Living In A Box / Living In A Box
TTITLE9=Billy Idol / Sweet Sixteen
TTITLE10=Johnny Hates Jazz / Shattered Dreams
TTITLE11=T'Pau / China In Your Hand
TTITLE12=Climie Fisher / Love Changes (Everything)
TTITLE13=Bobby McFerrin / Don't Worry Be Happy
TTITLE14=Jaki Graham / Round And Round
TTITLE15=Kim Wilde / Cambodia
TTITLE16=Paul Hardcastle / Don't Waste My Time
TTITLE17=Thomas Dolby / I Scare Myself
EXTD=YEAR: 1998 ID3G: 13
EXTT0=YEAR: 1985
EXTT1=YEAR: 1986
EXTT2=YEAR: 1986
EXTT3=YEAR: 1986
EXTT4=YEAR: 1986
EXTT5=YEAR: 1986
EXTT6=YEAR: 1983
EXTT7=YEAR: 1987
EXTT8=YEAR: 1987
EXTT9=YEAR: 1986
EXTT10=YEAR: 1988
EXTT11=YEAR: 1987
EXTT12=YEAR: 1987
EXTT13=YEAR: 1988
EXTT14=YEAR: 1985
EXTT15=YEAR: 1981
EXTT16=YEAR: 1986
EXTT17=YEAR: 1983
PLAYORDER=