Last change 2020.03.01 14:20:52 / Time 2021.12.01 15:22:17

Music Database

My complete CD collection digitalized using differnent Linux tools in connection with remote CDDB databases.
These web pages give overview of content according to CDDB info.

cddb/1f117a15.txt

# xmcd
#
# Track frame offsets: 
#        150
#        460
#        28655
#        54795
#        79370
#        80925
#        92455
#        108838
#        113373
#        135308
#        171555
#        189680
#        214250
#        239498
#        277050
#        315060
#        331633
#        331950
#        334058
#        334465
#        335373
#
# Disc length: 4476 seconds
#
# Revision: 8
# Processed by: cddbd v1.5.2PL0 Copyright (c) Steve Scherf et al.
# Submitted via: ExactAudioCopy v1.0b1
#
DISCID=1f117a15
DTITLE=Monrad & Rislund / Akasut Mundvand 2
DYEAR=1993
DGENRE=Humour
TTITLE0=Velkomst
TTITLE1=Lokkehjulet
TTITLE2=Mogens
TTITLE3=Den store hjælpegalla
TTITLE4=Akelas belæring
TTITLE5=Radioavis
TTITLE6=Jeg har li' lavet en pølse
TTITLE7=Milles far havde købt et kukkeur
TTITLE8=Trafikradio
TTITLE9=Brodtgård vinder sit eget legetøj
TTITLE10=Syd for Køge
TTITLE11=Radioteatret (ovre i døgneren)
TTITLE12=1 (een) klar klar gæt (Henriksen version)
TTITLE13=VM i skidrop
TTITLE14=Jul med Gombert & Flanhardt
TTITLE15=Jul igen (remix)
TTITLE16=Jingle 1 (Din skvaddernosse)
TTITLE17=Jingle 2 (Jeg ka ikke åbn' den)
TTITLE18=Jingle 3 (Du skal lese med den richtige stimme)
TTITLE19=Jingle 4 (Det' eddermame vildt)
TTITLE20=Jingle bells (Du skal ikke stå og puste...)
EXTD=YEAR: 1993 ID3G: 100
EXTT0=
EXTT1=
EXTT2=
EXTT3=
EXTT4=
EXTT5=
EXTT6=
EXTT7=
EXTT8=
EXTT9=
EXTT10=
EXTT11=
EXTT12=
EXTT13=
EXTT14=
EXTT15=
EXTT16=
EXTT17=
EXTT18=
EXTT19=
EXTT20=
PLAYORDER=
.