Last change 2020.03.01 14:20:52 / Time 2021.12.01 14:42:06

Music Database

My complete CD collection digitalized using differnent Linux tools in connection with remote CDDB databases.
These web pages give overview of content according to CDDB info.

cddb/1e11b913.txt

# xmcd CD database file generated by Grip 3.3.1
# 
# Track frame offsets:
#       183
#       14015
#       30410
#       44408
#       58225
#       72068
#       90038
#       105920
#       130248
#       152163
#       169335
#       188125
#       207650
#       224518
#       240455
#       262468
#       279125
#       299223
#       325663
# 
# Disc length: 4539 seconds
# 
# Revision: 4
# Submitted via: Grip 3.3.1
# 
DISCID=1e11b913
DTITLE=Various / Disco Dance Classics CD1
DYEAR=1995
DGENRE=misc
DID3=4
TTITLE0=Tina Charles / I Love To Love
TTITLE1=Sugarhill Gang / Rappers Delight
TTITLE2=Jesse Green / Nice And Slow
TTITLE3=Michael Zager Band / Let's All Chant
TTITLE4=KC & The Sunshine Band / That's The Way I Like It
TTITLE5=Shirley & Company / Shame, Shame, Shame
TTITLE6=Joe Bataan / The Bottle
TTITLE7=Candido / Jingo
TTITLE8=Instant Funk / I've Got My Mind Made Up
TTITLE9=Jocelyn Brown / Somebody Else's Guy
TTITLE10=D-Train / You're The One For Me
TTITLE11=Trans-X / Living On Video
TTITLE12=Lime / Your Love
TTITLE13=Shannon / Let The Music Play
TTITLE14=Ryan Paris / Dolce Vita
TTITLE15=Amii Stewart / Knock On Wood
TTITLE16=Trakx / Long Train Running
TTITLE17=Valentine Brothers / Money's Too Tight To Mention
TTITLE18=Commodores / Brickhouse
EXTD= YEAR: 1995
EXTT0=
EXTT1=
EXTT2=
EXTT3=
EXTT4=
EXTT5=
EXTT6=
EXTT7=
EXTT8=
EXTT9=
EXTT10=
EXTT11=
EXTT12=
EXTT13=
EXTT14=
EXTT15=
EXTT16=
EXTT17=
EXTT18=
PLAYORDER=