Last change 2020.03.01 14:20:52 / Time 2021.10.22 10:40:59

Music Database

My complete CD collection digitalized using differnent Linux tools in connection with remote CDDB databases.
These web pages give overview of content according to CDDB info.

cddb/1d0ce415.txt

# xmcd CD database file generated by Grip 3.3.1
# 
# Track frame offsets:
#       150
#       2042
#       15090
#       18175
#       37352
#       49327
#       65635
#       75115
#       90415
#       104682
#       124945
#       135687
#       147452
#       164547
#       180830
#       186510
#       203470
#       218480
#       220657
#       235160
#       247062
# 
# Disc length: 3302 seconds
# 
# Revision: 8
# Submitted via: Grip 3.3.1
# 
DISCID=1d0ce415
DTITLE=Shu-bi-dua / Stærk Tobak!!! (CD2)
DYEAR=1991
DGENRE=folk
DID3=53
TTITLE0=Intro
TTITLE1=Fed Rock
TTITLE2=Jeg Er Fluen
TTITLE3=Askepot
TTITLE4=Sand-Hans
TTITLE5=Sorgenfri
TTITLE6=Jeg Har Købt En Guitar
TTITLE7=Den Røde Tråd
TTITLE8=Knald I Låget
TTITLE9=Midsommersangen
TTITLE10=Lulu Rocken Går
TTITLE11=Nam Nam
TTITLE12=Kor, Kærlighed og Klokkeklang
TTITLE13=Minus Til Plus
TTITLE14=Kylling Med Soft Ice
TTITLE15=We Wanna Be Free
TTITLE16=Vuggevisen
TTITLE17=Dialog II
TTITLE18=Rom og Cola
TTITLE19=Stjernefart
TTITLE20=Ål I Rejer
EXTD=CD 2 of 3 (Studio Recordings)CD 2 of 3 (Studio Recordings)\nRecor
EXTD=d number:Elap Music 4615CD\n
EXTT0=
EXTT1=
EXTT2=
EXTT3=
EXTT4=
EXTT5=
EXTT6=
EXTT7=
EXTT8=
EXTT9=
EXTT10=
EXTT11=
EXTT12=
EXTT13=
EXTT14=
EXTT15=
EXTT16=
EXTT17=
EXTT18=
EXTT19=
EXTT20=
PLAYORDER=