Last change 2020.03.01 14:20:52 / Time 2021.12.01 16:17:05

Music Database

My complete CD collection digitalized using differnent Linux tools in connection with remote CDDB databases.
These web pages give overview of content according to CDDB info.

cddb/1b113512.txt

# xmcd CD database file generated by Grip 3.2.0
# 
# Track frame offsets:
#       150
#       25830
#       44676
#       60340
#       79857
#       96221
#       114886
#       138067
#       156358
#       170053
#       186582
#       205054
#       221144
#       239182
#       261667
#       283086
#       296459
#       311729
# 
# Disc length: 4407 seconds
# 
# Revision: 19
# Submitted via: Grip 3.2.0
# 
DISCID=1b113512
DTITLE=Various Artists / 80's - CD3
DYEAR=1998
DGENRE=misc
DID3=13
TTITLE0=Talk Talk / Such A Shame
TTITLE1=Billy Idol / Eyes Without A Face
TTITLE2=Limahl / Never Ending Story
TTITLE3=Duran Duran / Wild Boys
TTITLE4=Pat Benatar / We Belong
TTITLE5=Nick Straker / A Walk In The Park
TTITLE6=Ashford & Simpson / Solid
TTITLE7=Talking Heads / Road To Nowhere
TTITLE8=Michael Zager Band / Let's All Chant
TTITLE9=Paul Hardcastle / Nineteen
TTITLE10=Billy Ocean / Caribbean Queen (No More Love On The Run)
TTITLE11=Marillion / Kayleigh
TTITLE12=Sandra / Maria Magdalena
TTITLE13=Kate Bush / Running Up That Hill
TTITLE14=Midge Ure / If I Was
TTITLE15=Dr. Hook / Sexy Eyes
TTITLE16=Hot Chocolate / Girl Crazy
TTITLE17=Kajagoogoo / Big Apple
EXTD=
EXTT0=
EXTT1=
EXTT2=
EXTT3=
EXTT4=
EXTT5=
EXTT6=
EXTT7=
EXTT8=
EXTT9=
EXTT10=
EXTT11=
EXTT12=
EXTT13=
EXTT14=
EXTT15=
EXTT16=
EXTT17=
PLAYORDER=