Last change 2020.03.01 14:20:52 / Time 2020.09.19 16:15:58

Music Database

My complete CD collection digitalized using differnent Linux tools in connection with remote CDDB databases.
These web pages give overview of content according to CDDB info.

cddb/1b0d4b14.txt

# xmcd CD database file generated by Grip 3.0.7
# 
# Track frame offsets:
#       150
#       12065
#       23795
#       35787
#       48900
#       60635
#       75357
#       85632
#       100157
#       111715
#       125457
#       142037
#       153467
#       167105
#       179807
#       192305
#       202950
#       213780
#       223217
#       237320
# 
# Disc length: 3405 seconds
# 
# Revision: 2
# Submitted via: Grip 3.0.7
# 
DISCID=1b0d4b14
DTITLE=Cash Johnny / Itchy Feet (Greatest Hits)
DYEAR=1978
DGENRE=country
DID3=2
TTITLE0=Folsom Prison Blues
TTITLE1=I Walk The Line
TTITLE2=Ring Of Fire
TTITLE3=Forty Shades Of Green
TTITLE4=I Still Miss Someone
TTITLE5=There Ain't No Good Chain Gang
TTITLE6=Busted
TTITLE7=25 Minutes To Go
TTITLE8=A Thing Called Love
TTITLE9=It Ain't Me Babe
TTITLE10=A Boy Named Sue
TTITLE11=San Quentin
TTITLE12=Don't Take Your Guns To Town
TTITLE13=The One On The Right Is On The Left
TTITLE14=Jackson
TTITLE15=Hey Porter
TTITLE16=Daddy Sang Bass
TTITLE17=I Got Stripes
TTITLE18=Orange Blossom Special
TTITLE19=One Piece At A Time
EXTD=Label: Columbia\nCB 701\n
EXTT0=
EXTT1=
EXTT2=
EXTT3=
EXTT4=
EXTT5=with Waylon Jennings
EXTT6=
EXTT7=
EXTT8=
EXTT9=
EXTT10=
EXTT11=
EXTT12=
EXTT13=
EXTT14=with June Carter
EXTT15=
EXTT16=
EXTT17=
EXTT18=
EXTT19=
PLAYORDER=