Last change 2020.03.01 14:20:52 / Time 2020.09.19 16:06:19

Music Database

My complete CD collection digitalized using differnent Linux tools in connection with remote CDDB databases.
These web pages give overview of content according to CDDB info.

cddb/1a0bc412.txt

# xmcd CD database file generated by Grip 3.3.1
# 
# Track frame offsets:
#       182
#       13830
#       24732
#       37310
#       51087
#       62717
#       73272
#       90307
#       102435
#       113082
#       126170
#       138560
#       151972
#       164112
#       177675
#       187442
#       200605
#       211695
# 
# Disc length: 3014 seconds
# 
# Revision: 1
# Submitted via: Grip 3.3.1
# 
DISCID=1a0bc412
DTITLE=Peter Belli / Ulven Peter CD1
DYEAR=1993
DGENRE=rock
DID3=17
TTITLE0=Ulven Peter
TTITLE1=Helt igennem respektabel
TTITLE2=Hvis jeg var arbejdsløs
TTITLE3=Ob-la-di-ob-la-da
TTITLE4=I avisen
TTITLE5=Kom med mig
TTITLE6=Sylvias mor
TTITLE7=Hold jer fra Lone
TTITLE8=Bungalow Bill
TTITLE9=Bli' væk fra vort kvarter
TTITLE10=Jeg er din dengse i nat
TTITLE11=Tapre bjørn
TTITLE12=Det du ka' li'
TTITLE13=Roll over Beatles
TTITLE14=Should I ever love again
TTITLE15=Move On
TTITLE16=The girls that stood beside me
TTITLE17=Go now
EXTD=REcord number Kick Music KICKCD 017\n
EXTT0=
EXTT1=
EXTT2=
EXTT3=
EXTT4=
EXTT5=
EXTT6=
EXTT7=
EXTT8=
EXTT9=
EXTT10=
EXTT11=
EXTT12=
EXTT13=
EXTT14=
EXTT15=
EXTT16=
EXTT17=
PLAYORDER=