Last change 2020.03.01 14:20:52 / Time 2021.12.01 14:53:19

Music Database

My complete CD collection digitalized using differnent Linux tools in connection with remote CDDB databases.
These web pages give overview of content according to CDDB info.

cddb/17124613.txt

# xmcd CD database file generated by Grip 3.3.1
# 
# Track frame offsets:
#       150
#       16994
#       36208
#       53852
#       71690
#       90184
#       115075
#       135953
#       156761
#       175960
#       190624
#       209206
#       230053
#       246726
#       265454
#       285388
#       303072
#       321346
#       336595
# 
# Disc length: 4680 seconds
# 
# Revision: 4
# Submitted via: Grip 3.3.1
# 
DISCID=17124613
DTITLE=TV-2 / Hits 1
DYEAR=2004
DGENRE=misc
DID3=17
TTITLE0=Fantastiske Toyota
TTITLE1=Vi skaber en verden perfekt
TTITLE2=Natradio
TTITLE3=Bag duggede ruder
TTITLE4=Popmusikerens vise
TTITLE5=Vil du danse med mig
TTITLE6=Be bab a lu la
TTITLE7=Lanternen
TTITLE8=Ræven og rønnebærrene
TTITLE9=På Skanderborg station
TTITLE10=Hele verden fra forstanden
TTITLE11=Rigtige mænd
TTITLE12=Tidens kvinder
TTITLE13=Fri som fuglen
TTITLE14=Turbo
TTITLE15=Nærmest lykkelig
TTITLE16=Det mørke Jylland
TTITLE17=Alt hvad hun ville var at danse
TTITLE18=Kys det nu (det satans liv)
EXTD=
EXTT0=
EXTT1=
EXTT2=
EXTT3=
EXTT4=
EXTT5=
EXTT6=
EXTT7=
EXTT8=
EXTT9=
EXTT10=
EXTT11=
EXTT12=
EXTT13=
EXTT14=
EXTT15=
EXTT16=
EXTT17=
EXTT18=
PLAYORDER=