Last change 2020.03.01 14:20:52 / Time 2020.09.24 08:52:42

Music Database

My complete CD collection digitalized using differnent Linux tools in connection with remote CDDB databases.
These web pages give overview of content according to CDDB info.

cddb/170cbd12.txt

# xmcd CD database file generated by Grip 3.3.1
# 
# Track frame offsets:
#       150
#       14722
#       31362
#       43975
#       60600
#       73105
#       84552
#       95147
#       113770
#       124720
#       139555
#       156430
#       165420
#       181145
#       194207
#       205000
#       216740
#       232342
# 
# Disc length: 3263 seconds
# 
# Revision: 3
# Submitted via: Grip 3.3.1
# 
DISCID=170cbd12
DTITLE=Roger Whittaker / The World of Roger Whittaker
DYEAR=1996
DGENRE=folk
DID3=80
TTITLE0=Durham Town
TTITLE1=The Last Farewell
TTITLE2=Morning Has Broken
TTITLE3=Mamy Blue
TTITLE4=The Skye Boat Song
TTITLE5=Morning, Please Don't Come
TTITLE6=Quel Monde Merveilleux (What A Wonderful World)
TTITLE7=He Ain't Heavy, He's My Brother
TTITLE8=New World In The Morning
TTITLE9=I Don't Believe In If Anymore
TTITLE10=Streets Of London
TTITLE11=Mexican Whistler
TTITLE12=Dirty Old Town
TTITLE13=A Taste Of Honey
TTITLE14=Good Morning Starshine
TTITLE15=By The Time I Get To Phoenix
TTITLE16=From Both Sides Now
TTITLE17=Why
EXTD=YEAR: 1996 Karussell
EXTT0=
EXTT1=
EXTT2=
EXTT3=
EXTT4=
EXTT5=
EXTT6=
EXTT7=
EXTT8=
EXTT9=
EXTT10=
EXTT11=
EXTT12=
EXTT13=
EXTT14=
EXTT15=
EXTT16=
EXTT17=
PLAYORDER=