Last change 2020.03.01 14:20:52 / Time 2020.09.24 08:11:49

Music Database

My complete CD collection digitalized using differnent Linux tools in connection with remote CDDB databases.
These web pages give overview of content according to CDDB info.

cddb/170a5e03.txt

# xmcd CD database file generated by Grip 3.3.1
# 
# Track frame offsets:
#       151
#       76624
#       139033
# 
# Disc length: 2656 seconds
# 
# Revision: 0
# Submitted via: Grip 3.3.1
# 
DISCID=170a5e03
DTITLE=Various / Buddhist Mantra Acd 01399
DYEAR=
DGENRE=misc
DID3=20
TTITLE0=The Heath - Mantra Of Medicine Master Buddha
TTITLE1=The Buddha Of Medicine
TTITLE2=Unknown
EXTD=
EXTT0=
EXTT1=
EXTT2=
PLAYORDER=