Last change 2020.03.01 14:20:52 / Time 2020.09.19 15:01:07

Music Database

My complete CD collection digitalized using differnent Linux tools in connection with remote CDDB databases.
These web pages give overview of content according to CDDB info.

cddb/16119214.txt

# xmcd CD database file generated by Grip 3.0.7
# 
# Track frame offsets:
#       150
#       22111
#       38765
#       55608
#       70647
#       87580
#       98962
#       117585
#       135813
#       154604
#       167790
#       184650
#       206397
#       223103
#       241855
#       258919
#       275260
#       290431
#       306903
#       321004
# 
# Disc length: 4500 seconds
# 
# Revision: 0
# Submitted via: Grip 3.0.7
# 
DISCID=16119214
DTITLE=Various Artists / One Hit Wonders - CD6
DYEAR=
DGENRE=misc
DID3=12
TTITLE0=Sugarhill Gang / Rapper's Delight
TTITLE1=Rocky Burnette / Tired of toein' the line
TTITLE2=Peter Tosh / Don't look back (you've gotta walk)
TTITLE3=M / Pop Muzik
TTITLE4=Alan Sorrenti / Tu sei l'unica donna per me
TTITLE5=Flying Lizards / Money
TTITLE6=Fern Kinney / Together we are beautiful
TTITLE7=Kelly Marie / Feels like I'm in love
TTITLE8=The Korgis / Everybody's gotta learn sometime
TTITLE9=Jona Lewie / Stop the cavalry
TTITLE10=The Vapors / Turning japanese
TTITLE11=Black Slate / Amigo
TTITLE12=Kim Carnes / Bette Davis eyes
TTITLE13=Juice Newton / Angel of the morning
TTITLE14=Dave Stewart & Barbara Gaskin / It's my party
TTITLE15=The J. Gells Band / Centerfold
TTITLE16=Linx / Intuition
TTITLE17=The Specials / Ghost town
TTITLE18=Renee & Renato / Save your love
TTITLE19=Adrian Gurvitz / Classic
EXTD=
EXTT0=
EXTT1=
EXTT2=
EXTT3=
EXTT4=
EXTT5=
EXTT6=
EXTT7=
EXTT8=
EXTT9=
EXTT10=
EXTT11=
EXTT12=
EXTT13=
EXTT14=
EXTT15=
EXTT16=
EXTT17=
EXTT18=
EXTT19=
PLAYORDER=