Last change 2020.03.01 14:20:52 / Time 2020.09.24 08:41:35

Music Database

My complete CD collection digitalized using differnent Linux tools in connection with remote CDDB databases.
These web pages give overview of content according to CDDB info.

cddb/1511d713.txt

# xmcd CD database file generated by Grip 3.3.1
# 
# Track frame offsets:
#       150
#       17167
#       37147
#       60527
#       79722
#       95082
#       111815
#       131830
#       153975
#       173785
#       190027
#       206185
#       221932
#       234980
#       246807
#       260717
#       279542
#       308837
#       322815
# 
# Disc length: 4569 seconds
# 
# Revision: 6
# Submitted via: Grip 3.3.1
# 
DISCID=1511d713
DTITLE=Various / The Ultimate Christmas Collection CD1
DYEAR=1998
DGENRE=misc
DID3=12
TTITLE0=Band Aid / Do They Know Its Christmas
TTITLE1=East 17 / Stay Another Day
TTITLE2=Frankie Goes To Hollywood / The Power Of Love
TTITLE3=Queen / Thank God Its Christmas
TTITLE4=Slade / Merry Christmas Everybody
TTITLE5=Gary Glitter / Another Rock 'n' Roll Christmas
TTITLE6=The Pogues And Kirsty McColl / Fairytale Of New York 
TTITLE7=Gloria Estefan / Christmas Through Your Eyes
TTITLE8=Elton John / Step Into Christmas
TTITLE9=The Pretenders / 2000 Miles
TTITLE10=Hanson / What Christmas Means To Me
TTITLE11=Greg Lake / I Believe In Father Christmas
TTITLE12=Jona Lewie / Stop The Cavalry
TTITLE13=Jackson Five, The / Frosty The Snowman
TTITLE14=St. Etienne / I Was Born On Christmas Day
TTITLE15=Whigfield / Last Christmas
TTITLE16=Donna Summer / Winter Melody
TTITLE17=Love Unlimited / It May Be Winter Outside
TTITLE18=Abba / Happy New Year
EXTD= YEAR: 1998
EXTT0=
EXTT1=
EXTT2=
EXTT3=
EXTT4=
EXTT5=
EXTT6=
EXTT7=
EXTT8=
EXTT9=
EXTT10=
EXTT11=
EXTT12=
EXTT13=
EXTT14=
EXTT15=
EXTT16=
EXTT17=
EXTT18=
PLAYORDER=