Last change 2020.03.01 14:20:52 / Time 2021.12.07 02:48:17

Music Database

My complete CD collection digitalized using differnent Linux tools in connection with remote CDDB databases.
These web pages give overview of content according to CDDB info.

cddb/150c0f12.txt

# xmcd CD database file generated by Grip 3.2.0
# 
# Track frame offsets:
#       150
#       11627
#       21052
#       33477
#       44675
#       55275
#       67485
#       83527
#       96707
#       120260
#       129737
#       139807
#       151355
#       164557
#       174385
#       186620
#       202132
#       211457
# 
# Disc length: 3089 seconds
# 
# Revision: 1
# Submitted via: Grip 3.2.0
# 
DISCID=150c0f12
DTITLE=Creedence Clearwater Revival / 36 Greatest Hits CD2
DYEAR=
DGENRE=rock
DID3=17
TTITLE0=Lookin' Out My Back Door
TTITLE1=Travelin' Band
TTITLE2=Down On The Corner
TTITLE3=Who'll Stop The Rain
TTITLE4=Fortunate Son
TTITLE5=Good Golly Miss Molly
TTITLE6=Long As I Can See The Light
TTITLE7=Sweet Hitch-Hiker
TTITLE8=Born On The Bayou
TTITLE9=Molina
TTITLE10=Hello Mary Lou
TTITLE11=Green River
TTITLE12=It Came Out Of The Sky
TTITLE13=Don't Look Now
TTITLE14=Commotion
TTITLE15=Before You Accuse Me
TTITLE16=Ooby Dooby
TTITLE17=I Put A Spell On You
EXTD=
EXTT0=
EXTT1=
EXTT2=
EXTT3=
EXTT4=
EXTT5=
EXTT6=
EXTT7=
EXTT8=
EXTT9=
EXTT10=
EXTT11=
EXTT12=
EXTT13=
EXTT14=
EXTT15=
EXTT16=
EXTT17=
PLAYORDER=