Last change 2020.03.01 14:20:52 / Time 2021.10.18 11:13:44

Music Database

My complete CD collection digitalized using differnent Linux tools in connection with remote CDDB databases.
These web pages give overview of content according to CDDB info.

cddb/14110d12.txt

# xmcd CD database file generated by Grip 3.3.1
# 
# Track frame offsets:
#       150
#       21310
#       40360
#       59645
#       77742
#       94990
#       114090
#       131797
#       153625
#       168412
#       186932
#       206052
#       222510
#       241942
#       258910
#       273400
#       291835
#       313755
# 
# Disc length: 4367 seconds
# 
# Revision: 1
# Submitted via: Grip 3.3.1
# 
DISCID=14110d12
DTITLE=Gnags / Gnags Greatest
DYEAR=1999
DGENRE=rock
DID3=17
TTITLE0=Den Dejligste Morgen
TTITLE1=Vilde Kaniner
TTITLE2=Danmark
TTITLE3=Sensommer På Strøget
TTITLE4=Dansende Blå Linealer
TTITLE5=Slingrer Ned Ad Vestergade
TTITLE6=Når Jeg Bliver Gammel
TTITLE7=Mr. Swing King
TTITLE8=Går Med Hunden Gennem Byen
TTITLE9=Lygtemandens Sang
TTITLE10=Lav Sol Over Århus
TTITLE11=En Underlig Fisk
TTITLE12=Kærester
TTITLE13=Fuldmånen Lyser
TTITLE14=Safari
TTITLE15=Fodgænger
TTITLE16=Er Vi I Live - Eller Hva'?
TTITLE17=Rytmehans - 2000 (Soulpoets Remix '99)
EXTD=Den dejligste plade i 100 år
EXTT0=Fra "Har De puttet noget i kaffen" 1987
EXTT1=Fra "Den blå hund" 1984
EXTT2=Fra "Plads til begejstring" 1986
EXTT3=Fra "Plads til begejstring" 1986
EXTT4=Fra "Mr. Swing King" 1989
EXTT5=Fra "X" 1983
EXTT6=Fra "Mr. Swing King" 1989
EXTT7=Fra "Mr. Swing King" 1989
EXTT8=Fra "Den blå hund" 1984
EXTT9=Fra "Lygtemandens sang" 1991
EXTT10=Fra "Lygtemandens sang" 1991
EXTT11=Fra "En underlig fisk" 1985
EXTT12=Fra "En underlig fisk" 1985
EXTT13=Fra "X" 1983
EXTT14=Fra "Safari" 1982
EXTT15=Fra "X" 1983
EXTT16=Fra "Lygtemandens sang" 1991
EXTT17= (Soulpoets remix 99)
PLAYORDER=