Last change 2020.03.01 14:20:52 / Time 2021.10.22 09:16:27

Music Database

My complete CD collection digitalized using differnent Linux tools in connection with remote CDDB databases.
These web pages give overview of content according to CDDB info.

cddb/1410d514.txt

# xmcd CD database file generated by Grip 3.3.1
# 
# Track frame offsets:
#       150
#       14240
#       32930
#       60972
#       67762
#       85377
#       102967
#       112585
#       124257
#       142785
#       156997
#       175110
#       188135
#       205532
#       229470
#       240415
#       257867
#       270962
#       287502
#       298805
# 
# Disc length: 4311 seconds
# 
# Revision: 5
# Submitted via: Grip 3.3.1
# 
DISCID=1410d514
DTITLE=Johnny Madsen / Fyrre af de Fede CD1
DYEAR=1996
DGENRE=misc
DID3=0
TTITLE0=Johnny
TTITLE1=Udenfor sæsonen
TTITLE2=En Sølvmåge lander ganske langsomt på Baticas flerfarvede lyss
TTITLE2=tofrør og kikker opmfæksomt ud på havet
TTITLE3=Flyver Blues
TTITLE4=Heroes
TTITLE5=Stjernenat
TTITLE6=Ta' mod vest
TTITLE7=Æ Møt her te' en Bal
TTITLE8=Færgemanden
TTITLE9=Billy og Villy
TTITLE10=Chinatown, Yellow Moon og den sorte fugl
TTITLE11=Akvariefisk
TTITLE12=Terylene Bukser
TTITLE13=One Man Band
TTITLE14=Drengeleg
TTITLE15=Sergei og Johnny
TTITLE16=Jens Oluf
TTITLE17=Sanduglen og natørnen
TTITLE18=Digt fra Vest
TTITLE19=Æ kør' o æ Motorvej
EXTD=
EXTT0=
EXTT1=
EXTT2=
EXTT3=
EXTT4=
EXTT5=
EXTT6=
EXTT7=
EXTT8=
EXTT9=
EXTT10=
EXTT11=
EXTT12=
EXTT13=
EXTT14=
EXTT15=
EXTT16=
EXTT17=
EXTT18=
EXTT19=
PLAYORDER=