Last change 2020.03.01 14:20:52 / Time 2020.09.24 06:56:24

Music Database

My complete CD collection digitalized using differnent Linux tools in connection with remote CDDB databases.
These web pages give overview of content according to CDDB info.

cddb/14108512.txt

# xmcd CD database file generated by Grip 3.2.0
# 
# Track frame offsets:
#       150
#       20308
#       37018
#       50290
#       72158
#       87830
#       104787
#       121026
#       136217
#       154333
#       176006
#       195901
#       215878
#       232476
#       255132
#       266889
#       283131
#       299547
# 
# Disc length: 4231 seconds
# 
# Revision: 24
# Submitted via: Grip 3.2.0
# 
DISCID=14108512
DTITLE=Various Artists / 80's - CD1
DYEAR=1998
DGENRE=misc
DID3=13
TTITLE0=Hot Chocolate - No Doubt About It
TTITLE1=Leo Sayer - More Than I Can Say
TTITLE2=Jona Lewie - Stop The Cavalry
TTITLE3=Stars On 45 - Stars On 45 (Medley)
TTITLE4=Kim Wilde - Kids In America
TTITLE5=Kim Carnes - Bette Davis Eyes
TTITLE6=Max Werner - Rain In May
TTITLE7=Sheena Easton - Morning Train (Nine To Five)
TTITLE8=Tony Esposito - Papa Chico
TTITLE9=Moses - We Just
TTITLE10=Culture Club - Do You Really Want To Hurt Me?
TTITLE11=Ultravox - Hymn
TTITLE12=Kajagoogoo - Too Shy
TTITLE13=Waterboys - The Whole Of The Moon
TTITLE14=Tracey Ullman - Breakaway
TTITLE15=Belouis Some - Imagination
TTITLE16=J. Geils Band - Centerfold
TTITLE17=Katrina & The Waves - Walking On Sunshine
EXTD=YEAR: 1998
EXTT0=
EXTT1=
EXTT2=
EXTT3=
EXTT4=
EXTT5=
EXTT6=
EXTT7=
EXTT8=
EXTT9=
EXTT10=
EXTT11=
EXTT12=
EXTT13=
EXTT14=
EXTT15=
EXTT16=
EXTT17=
PLAYORDER=