Last change 2020.03.01 14:20:52 / Time 2020.09.19 16:05:42

Music Database

My complete CD collection digitalized using differnent Linux tools in connection with remote CDDB databases.
These web pages give overview of content according to CDDB info.

cddb/140fff12.txt

# xmcd CD database file generated by Grip 3.3.1
# 
# Track frame offsets:
#       183
#       17805
#       30873
#       47698
#       71245
#       85263
#       101453
#       121870
#       135583
#       149273
#       164520
#       183480
#       200908
#       213683
#       230058
#       252958
#       272053
#       287953
# 
# Disc length: 4097 seconds
# 
# Revision: 2
# Submitted via: Grip 3.3.1
# 
DISCID=140fff12
DTITLE=David Essex / The Collection
DYEAR=1991
DGENRE=rock
DID3=17
TTITLE0=Oh What A Circus
TTITLE1=Heart On My Sleeve
TTITLE2=No Substitutes
TTITLE3=Imperial Wizard
TTITLE4=Silver Dream Machine
TTITLE5=Hot Love
TTITLE6=Ships That Pass In The Night
TTITLE7=Me And My Girl
TTITLE8=She's My World
TTITLE9=High Flying, Adored
TTITLE10=A Winter's Tale
TTITLE11=The Smile
TTITLE12=Won't Change Me Now
TTITLE13=Goodbye First Love
TTITLE14=Tahiti
TTITLE15=Fishing For The Moon
TTITLE16=You're In My Heart
TTITLE17=Falling Angels Riding
EXTD= YEAR: 1991 ID3G: 17
EXTT0=
EXTT1=
EXTT2=
EXTT3=
EXTT4=
EXTT5=
EXTT6=
EXTT7=
EXTT8=
EXTT9=
EXTT10=
EXTT11=
EXTT12=
EXTT13=
EXTT14=
EXTT15=
EXTT16=
EXTT17=
PLAYORDER=