Last change 2020.03.01 14:20:52 / Time 2021.12.07 03:17:26

Music Database

My complete CD collection digitalized using differnent Linux tools in connection with remote CDDB databases.
These web pages give overview of content according to CDDB info.

cddb/140c5912.txt

# xmcd CD database file generated by Grip 3.3.1
# 
# Track frame offsets:
#       182
#       12717
#       29885
#       41805
#       53867
#       67852
#       82167
#       93105
#       107630
#       120307
#       134587
#       144090
#       157207
#       170175
#       181975
#       191027
#       207120
#       224735
# 
# Disc length: 3163 seconds
# 
# Revision: 2
# Submitted via: Grip 3.3.1
# 
DISCID=140c5912
DTITLE=The Tremeloes / Silence Is Golden
DYEAR=1995
DGENRE=rock
DID3=11
TTITLE0=Here comes my baby
TTITLE1=(call me) number one
TTITLE2=Even the bad times are good
TTITLE3=My little lady
TTITLE4=Reach out, i´ll be there
TTITLE5=Alli-oop
TTITLE6=Do you love me?
TTITLE7=Ain´t nothing but a house party
TTITLE8=Yellow river
TTITLE9=Silence is golden
TTITLE10=Twist and shout
TTITLE11=Peggy sue
TTITLE12=Rag doll
TTITLE13=I like it that way
TTITLE14=Every day
TTITLE15=I shall be released
TTITLE16=Every little bit hurts
TTITLE17=Cool jerk
EXTD= ID3G:  11
EXTT0=
EXTT1=
EXTT2=
EXTT3=
EXTT4=
EXTT5=
EXTT6=
EXTT7=
EXTT8=
EXTT9=
EXTT10=
EXTT11=
EXTT12=
EXTT13=
EXTT14=
EXTT15=
EXTT16=
EXTT17=
PLAYORDER=