Last change 2020.03.01 14:20:52 / Time 2020.09.24 09:11:33

Music Database

My complete CD collection digitalized using differnent Linux tools in connection with remote CDDB databases.
These web pages give overview of content according to CDDB info.

cddb/13125f14.txt

# xmcd CD database file generated by Grip 3.3.1
# 
# Track frame offsets:
#       150
#       12210
#       27922
#       44985
#       63557
#       82635
#       97722
#       114962
#       132910
#       150260
#       170917
#       188835
#       213502
#       230792
#       250837
#       265210
#       283262
#       300860
#       313375
#       329310
# 
# Disc length: 4705 seconds
# 
# Revision: 7
# Submitted via: Grip 3.3.1
# 
DISCID=13125f14
DTITLE=Puhdys / 1969 - 1999
DYEAR=1999
DGENRE=misc
DID3=31
TTITLE0=Geh zu ihr
TTITLE1=Lebenszeit
TTITLE2=Königin
TTITLE3=Wenn Träume sterben
TTITLE4=Was bleibt
TTITLE5=Wenn ein Mensch lebt
TTITLE6=Hey, John
TTITLE7=Ich will nicht vergessen
TTITLE8=Doch die Gitter schweigen
TTITLE9=Türen öffnen sich zur Stadt
TTITLE10=Melanie
TTITLE11=Bis ans Ende der Welt
TTITLE12=An den Ufern der Nacht
TTITLE13=Kleiner Planet
TTITLE14=Alt wie ein Baum `99
TTITLE15=Rockerrente
TTITLE16=Hey, wir woll'n den Eisbärn sehn
TTITLE17=Süden
TTITLE18=Steh auf und lauf
TTITLE19=Das Buch
EXTD=YEAR: 1999 ID3G:  12
EXTT0=
EXTT1=
EXTT2=
EXTT3=
EXTT4=
EXTT5=
EXTT6=
EXTT7=
EXTT8=
EXTT9=
EXTT10=
EXTT11=
EXTT12=
EXTT13=
EXTT14=
EXTT15=
EXTT16=
EXTT17=
EXTT18=
EXTT19=
PLAYORDER=