Last change 2020.03.01 14:20:52 / Time 2021.12.01 15:40:49

Music Database

My complete CD collection digitalized using differnent Linux tools in connection with remote CDDB databases.
These web pages give overview of content according to CDDB info.

cddb/1310a314.txt

# xmcd CD database file generated by Grip 3.0.7
# 
# Track frame offsets:
#       150
#       11939
#       26856
#       38381
#       53841
#       70808
#       84514
#       100016
#       112664
#       140084
#       154109
#       171462
#       184885
#       197826
#       214853
#       232882
#       248641
#       266700
#       282231
#       302432
# 
# Disc length: 4261 seconds
# 
# Revision: 2
# Submitted via: Grip 3.0.7
# 
DISCID=1310a314
DTITLE=Various Artists / One Hit Wonders - CD5
DYEAR=2001
DGENRE=misc
DID3=12
TTITLE0=Jonathan Richman & The Modern Lovers / Egyptian Reggae
TTITLE1=Tom Robinson Band / 2-4-6-8 Motorway
TTITLE2=Crystal Gayle / Don't It Make My Brown Eyes Blue
TTITLE3=Santa Esmeralda / Don't Let Me Be Misunderstood
TTITLE4=Marshall Hain / Dancing In The City
TTITLE5=Michael Zager Band / Let's All Chant
TTITLE6=Clout / Substitute
TTITLE7=Lene Lovich / Lucky Number
TTITLE8=Gerry Rafferty / Baker Street
TTITLE9=Frankie Miller / Darlin'
TTITLE10=Scott Fitzgerald & Yvonne Keeley / If I Had Words
TTITLE11=Luv / (Ooh) Yes I Do
TTITLE12=The Surfers / Windsurfin'
TTITLE13=Errol Dunkley / O.K. Fred
TTITLE14=Knack / My Sharona
TTITLE15=Robert John / Sad Eyes
TTITLE16=Babys / Everytime I Think Of You
TTITLE17=Earth & Fire / Weekend
TTITLE18=Anita Ward / Ring My Bell
TTITLE19=Nick Straker Band / A Walk In The Park
EXTD=
EXTT0=
EXTT1=
EXTT2=
EXTT3=
EXTT4=
EXTT5=
EXTT6=
EXTT7=
EXTT8=
EXTT9=
EXTT10=
EXTT11=
EXTT12=
EXTT13=
EXTT14=
EXTT15=
EXTT16=
EXTT17=
EXTT18=
EXTT19=
PLAYORDER=