Last change 2020.03.01 14:20:52 / Time 2020.09.19 15:21:25

Music Database

My complete CD collection digitalized using differnent Linux tools in connection with remote CDDB databases.
These web pages give overview of content according to CDDB info.

cddb/120f7014.txt

# xmcd CD database file generated by Grip 3.3.1
# 
# Track frame offsets:
#       150
#       13782
#       29820
#       40322
#       53362
#       70912
#       87402
#       104205
#       121297
#       135905
#       152680
#       165380
#       183245
#       198865
#       210565
#       227255
#       240484
#       253865
#       265260
#       288575
# 
# Disc length: 3954 seconds
# 
# Revision: 0
# Submitted via: Grip 3.3.1
# 
DISCID=120f7014
DTITLE=Mikis Theodorakis / Zorba - Gr├Žske feriehits
DYEAR=1997
DGENRE=folk
DID3=115
TTITLE0=Kyklamino (Cyelamen)
TTITLE1=Varke Sto Gialo (Boat At The Seashore)
TTITLE2=To Palikari Ehi Kaimo (The Brave Man Has a Sorrow)
TTITLE3=Otan Simenoun I Kambanes (When The Bells Sound)
TTITLE4=Sto Parathiri Stekosoun (You Were Standing At The Window)
TTITLE5=I Balanda Tou Andrea (Andrea's Ballad)
TTITLE6=To Mesimeri (Noon)
TTITLE7=I Mirtia (The Myrthle)
TTITLE8=Margarita Margaro (Margaret Margaret)
TTITLE9=Ine Megalos O Kaimos (The Sorrow Is Great)
TTITLE10=Ke Doxa To Theo (Thanks God)
TTITLE11=Strose To Stroma Sou (Make Your Bed)
TTITLE12=O Zorba (Zorbas)
TTITLE13=Otan Sfigoun To Heri (When They Grab One's Hand)
TTITLE14=Margarita Mayiopoula (Margarita, Child Of May)
TTITLE15=Chryssoprassino Filo (Green - Gold Leaf)
TTITLE16=Sto Periyiali To Kryfo (The Hidden Shore)
TTITLE17=Prodemeni Mou Agapi (Love Betrayed)
TTITLE18=Vrechi Sti Ftochoguitonia (It's Raining In The Poor Side Of Town)
TTITLE19=An Thimithis To Onrio Mou (The Honeymoon Song)
EXTD=
EXTT0=
EXTT1=
EXTT2=
EXTT3=
EXTT4=
EXTT5=
EXTT6=
EXTT7=
EXTT8=
EXTT9=
EXTT10=
EXTT11=
EXTT12=
EXTT13=
EXTT14=
EXTT15=
EXTT16=
EXTT17=
EXTT18=
EXTT19=
PLAYORDER=