Last change 2020.03.01 14:20:52 / Time 2020.09.25 03:07:22

Music Database

My complete CD collection digitalized using differnent Linux tools in connection with remote CDDB databases.
These web pages give overview of content according to CDDB info.

cddb/1112a712.txt

# xmcd CD database file generated by Grip 3.3.1
# 
# Track frame offsets:
#       150
#       18317
#       36034
#       53685
#       71977
#       94001
#       114823
#       134518
#       156726
#       178102
#       200469
#       222493
#       242016
#       260127
#       278431
#       298698
#       317818
#       339093
# 
# Disc length: 4777 seconds
# 
# Revision: 1
# Submitted via: Grip 3.3.1
# 
DISCID=1112a712
DTITLE=TV-2 / Hits 2
DYEAR=2004
DGENRE=rock
DID3=17
TTITLE0=Rejsen til Rio
TTITLE1=Jeg vil ha' dig
TTITLE2=Kærligheden overvinder alt
TTITLE3=Det er samfundets skyld
TTITLE4=Kys bruden
TTITLE5=Kom lad os brokke os
TTITLE6=Line Jørgensen, Voldum
TTITLE7=Ring til mig
TTITLE8=Ynglingsbabe
TTITLE9=Der går min klasselærer
TTITLE10=Kom og se far danser
TTITLE11=Et sted derude
TTITLE12=Hallo Hallo
TTITLE13=Jordens heldigste
TTITLE14=På kanten af småt brændbart
TTITLE15=Big time og honning
TTITLE16=Herlev, det er skønt
TTITLE17=Fald min engel
EXTD=
EXTT0=
EXTT1=
EXTT2=
EXTT3=
EXTT4=
EXTT5=
EXTT6=
EXTT7=
EXTT8=
EXTT9=
EXTT10=
EXTT11=
EXTT12=
EXTT13=
EXTT14=
EXTT15=
EXTT16=
EXTT17=
PLAYORDER=