Last change 2020.03.01 14:20:52 / Time 2021.10.22 08:50:14

Music Database

My complete CD collection digitalized using differnent Linux tools in connection with remote CDDB databases.
These web pages give overview of content according to CDDB info.

cddb/1012b814.txt

# xmcd CD database file generated by Grip 3.3.1
# 
# Track frame offsets:
#       182
#       11265
#       28265
#       44577
#       57052
#       75625
#       95267
#       113575
#       131105
#       157787
#       180695
#       195027
#       210705
#       230650
#       250690
#       264225
#       282172
#       298962
#       319787
#       339612
# 
# Disc length: 4794 seconds
# 
# Revision: 5
# Submitted via: Grip 3.3.1
# 
DISCID=1012b814
DTITLE=Mixed Artists / It's snowtime
DYEAR=1993
DGENRE=misc
DID3=12
TTITLE0=Gasolin - Endelig jul igen
TTITLE1=Lars Lilhold Band - Om vi vil det eller ej
TTITLE2=Gnags - Gnags' julesang
TTITLE3=De nattergale - The Støvledans
TTITLE4=Skagarack - This time of year
TTITLE5=Elisabeth - Bitter sne
TTITLE6=ShuBiDua - Rap jul
TTITLE7=PS12 - Næsten som at tro på engle
TTITLE8=MC Einar - jul - det' cool
TTITLE9=Anne Linnet - Lille Messias
TTITLE10=ShuBi40 - Mary's Boy Child
TTITLE11=Banses Venner - Jeg kommer hjerm til jul
TTITLE12=Søs Fenger - Holder øje med dig
TTITLE13=Pretty Maids - In Santa's Claws
TTITLE14=Backseat Boys - Christmas for Santa
TTITLE15=Fielfraz - No More sad songs for Santa Claus
TTITLE16=Malurt - Hjulene ruller
TTITLE17=Darleens - It's Gonna be a cold cold Christmas
TTITLE18=TV2 - From all of us to all of you
TTITLE19=Michael Bundesen - White Christmas
EXTD= YEAR: 1993
EXTT0=
EXTT1=
EXTT2=
EXTT3=
EXTT4=
EXTT5=
EXTT6=
EXTT7=
EXTT8=
EXTT9=
EXTT10=
EXTT11=
EXTT12=
EXTT13=
EXTT14=
EXTT15=
EXTT16=
EXTT17=
EXTT18=
EXTT19=
PLAYORDER=