Last change 2020.03.01 14:20:52 / Time 2021.12.01 15:02:41

Music Database

My complete CD collection digitalized using differnent Linux tools in connection with remote CDDB databases.
These web pages give overview of content according to CDDB info.

cddb/100d2712.txt

# xmcd CD database file generated by Grip 3.3.1
# 
# Track frame offsets:
#       150
#       16118
#       30679
#       42059
#       58567
#       73001
#       85167
#       96380
#       110742
#       121444
#       135204
#       149976
#       161913
#       181013
#       197939
#       210697
#       221021
#       239633
# 
# Disc length: 3369 seconds
# 
# Revision: 0
# Submitted via: Grip 3.3.1
# 
DISCID=100d2712
DTITLE=Various / Country Classics
DYEAR=
DGENRE=misc
DID3=12
TTITLE0=Billie Jo Spears - Blanket on the ground
TTITLE1=Glen Campel - Rhinestone Cowboy
TTITLE2=Crystal Gayle - Don't make my brown eyes blue
TTITLE3=Don McLean - Craying
TTITLE4=Jeannie C. Riley - Harper valley p.t.h
TTITLE5=Johnny Cash - I walk the line
TTITLE6=Sonny James - Young love
TTITLE7=Don Williams - Another place another time
TTITLE8=Slim Whitman - Rose Marie
TTITLE9=Glen Campel - Wichita lineman
TTITLE10=Olivia Newton John - Take me home contry roads
TTITLE11=Wanda Jackson - Stand by your man
TTITLE12=Bilie Jo Spears - Ode to Billy Joe
TTITLE13=Tanya Turker - Love me llike you used to do
TTITLE14=Willie Nelson - Crazy
TTITLE15=Ferlin Husky - Wings og love
TTITLE16=Juice Newton - Angel of the morning
TTITLE17=Dr. Hook - A little bit more
EXTD=
EXTT0=
EXTT1=
EXTT2=
EXTT3=
EXTT4=
EXTT5=
EXTT6=
EXTT7=
EXTT8=
EXTT9=
EXTT10=
EXTT11=
EXTT12=
EXTT13=
EXTT14=
EXTT15=
EXTT16=
EXTT17=
PLAYORDER=