Last change 2020.03.01 14:20:52 / Time 2021.12.01 16:28:40

Music Database

My complete CD collection digitalized using differnent Linux tools in connection with remote CDDB databases.
These web pages give overview of content according to CDDB info.

cddb/0f122c13.txt

# xmcd CD database file generated by Grip 3.3.1
# 
# Track frame offsets:
#       150
#       16690
#       34500
#       52747
#       69275
#       87720
#       104152
#       121245
#       138877
#       154837
#       174850
#       189484
#       206470
#       224200
#       241040
#       257105
#       274810
#       290767
#       325037
# 
# Disc length: 4654 seconds
# 
# Revision: 4
# Submitted via: Grip 3.3.1
# 
DISCID=0f122c13
DTITLE=Absolute Music / 21
DYEAR=1999
DGENRE=misc
DID3=13
TTITLE0=Lou Bega / Mambo No. 5 (A little bit of ...)
TTITLE1=Shania Twain / That Don't Impress Me Much
TTITLE2=Ricky Martin / Livin' La Vida Loca
TTITLE3=Wamdue Project / King Of My Cactle
TTITLE4=Texas / In Our Lifetime
TTITLE5=Vengaboys / We're Going To Ibiza
TTITLE6=Jenifer Lopez / If You Had My Love
TTITLE7=Barcode Brothers / Dooh Dooh
TTITLE8=Shirley & Jonas Winge / Don't Look For Love
TTITLE9=Pet Shop Boys / I Don't Know What You Want But I Can't Give It An
TTITLE9=ymore
TTITLE10=Shanks & Bigfoot / Sweet Like Chocolate
TTITLE11=ATB / Don't Stop
TTITLE12=Britney Spears / Sometimes
TTITLE13=A-Teens / Mamma Mia
TTITLE14=Backstreet Boys / I Want It That Way
TTITLE15=The Pretenders / Human
TTITLE16=Lightforce / Take Your Time (The Riddle 99)
TTITLE17=Baz Luhrmann / Everybody's Free (To Wear Sunscreen)
TTITLE18=<< complation disc >> / Jubii IE explorer 5.0
EXTD= YEAR: 1999
EXTT0=
EXTT1=
EXTT2=
EXTT3=
EXTT4=
EXTT5=
EXTT6=
EXTT7=
EXTT8=
EXTT9=
EXTT10=
EXTT11=
EXTT12=
EXTT13=
EXTT14=
EXTT15=
EXTT16=
EXTT17=
EXTT18=
PLAYORDER=