Last change 2020.03.01 14:20:52 / Time 2020.09.19 16:04:28

Music Database

My complete CD collection digitalized using differnent Linux tools in connection with remote CDDB databases.
These web pages give overview of content according to CDDB info.

cddb/0f0de214.txt

# xmcd CD database file generated by Grip 3.3.1
# 
# Track frame offsets:
#       183
#       9550
#       22208
#       40078
#       54620
#       70208
#       82735
#       94425
#       107943
#       121138
#       133213
#       147243
#       160070
#       172598
#       192468
#       204923
#       223818
#       234170
#       247673
#       258240
# 
# Disc length: 3556 seconds
# 
# Revision: 3
# Submitted via: Grip 3.3.1
# 
DISCID=0f0de214
DTITLE=The Shadows / Another String Of Hot Hits And More
DYEAR=1987
DGENRE=rock
DID3=17
TTITLE0=Wonderful Land
TTITLE1=Atlantis
TTITLE2=Black Is Black
TTITLE3=Goodbye Yellow Brick Road
TTITLE4=River Deep Mountain High
TTITLE5=The Rise And Fall Of Flingel Bunt
TTITLE6=Midnight Cowboy
TTITLE7=Pinball Wizard/See Me Feel Me
TTITLE8=Apache
TTITLE9=God Only Knows
TTITLE10=Stardust
TTITLE11=Walk Don't Run
TTITLE12=The Most Beautiful Girl
TTITLE13=Good Vibrations
TTITLE14=Something
TTITLE15=Superstar
TTITLE16=Trains & Boats & Planes
TTITLE17=Honky Tonk Woman
TTITLE18=FBI
TTITLE19=Kon-Tiki
EXTD=
EXTT0=
EXTT1=
EXTT2=
EXTT3=
EXTT4=
EXTT5=
EXTT6=
EXTT7=
EXTT8=
EXTT9=
EXTT10=
EXTT11=
EXTT12=
EXTT13=
EXTT14=
EXTT15=
EXTT16=
EXTT17=
EXTT18=
EXTT19=
PLAYORDER=