Last change 2020.03.01 14:20:52 / Time 2021.10.22 08:46:26

Music Database

My complete CD collection digitalized using differnent Linux tools in connection with remote CDDB databases.
These web pages give overview of content according to CDDB info.

cddb/0e0de414.txt

# xmcd
#
# Track frame offsets:
#	150
#	14175
#	25950
#	36375
#	48225
#	59925
#	70500
#	83400
#	99075
#	110175
#	121350
#	137700
#	150900
#	169050
#	180750
#	194775
#	213225
#	225975
#	235125
#	250425
#
# Disc length: 3558 seconds
#
# Revision: 0
# Processed by: cddbd v1.5.2PL0 Copyright (c) Steve Scherf et al.
# Submitted via: EasyCDDAExtractor 7.5.0.1
#
DISCID=0e0de414
DTITLE=Various Artists / Alle Tiders Danske Schlager Hits - CD 03
DYEAR=2008
DGENRE=Pop
TTITLE0=Dorthe Kollo / Her I Vores Hus
TTITLE1=Grethe Klitgaard / Han Skal I Glas Og Ramme
TTITLE2=Mette / Hjerter Af Honning
TTITLE3=Gustav Winckler / Den Mørke Landevej
TTITLE4=Blue Boys / Døllefjællemusse
TTITLE5=Dario Campeotto / Quando Quando Quando
TTITLE6=Birthe Kjær / Lange Lars Fra Langeland
TTITLE7=Liller / Sidder På Et Værtshus
TTITLE8=Birthe Kjær / Den Gamle Tennessee Waltz
TTITLE9=Gustav Winckler / Det Var På Capri
TTITLE10=Rocazino / Ridder Lykke
TTITLE11=Rock Nalle / Go' Gamle Fru Olsen
TTITLE12=Maria Stenz / Goddag Og Farvel
TTITLE13=Bjørn & Okay / Ønskebrønden
TTITLE14=Eva Madsen / Mormors Kolonihavehus
TTITLE15=Peter Belli / Istedgade
TTITLE16=Birgit Lystager / Jeg Er Den Fødte Optimist
TTITLE17=Birthe Kjær / Om Jeg Så Bli'r Hundred År
TTITLE18=Susanne Lana / Hvis Tårer Var Guld
TTITLE19=Johnny Reimar / Sikken En Fest
EXTD=
EXTT0=
EXTT1=
EXTT2=
EXTT3=
EXTT4=
EXTT5=
EXTT6=
EXTT7=
EXTT8=
EXTT9=
EXTT10=
EXTT11=
EXTT12=
EXTT13=
EXTT14=
EXTT15=
EXTT16=
EXTT17=
EXTT18=
EXTT19=
PLAYORDER=
.