Last change 2020.03.01 14:20:52 / Time 2020.09.25 02:38:56

Music Database

My complete CD collection digitalized using differnent Linux tools in connection with remote CDDB databases.
These web pages give overview of content according to CDDB info.

cddb/0d114412.txt

# xmcd CD database file generated by Grip 3.2.0
# 
# Track frame offsets:
#       150
#       21088
#       38604
#       57466
#       73396
#       90872
#       109385
#       127705
#       145173
#       164186
#       178210
#       196323
#       212063
#       231051
#       253171
#       274199
#       289369
#       315012
# 
# Disc length: 4422 seconds
# 
# Revision: 17
# Submitted via: Grip 3.2.0
# 
DISCID=0d114412
DTITLE=Various Artists / 80's - CD6
DYEAR=1998
DGENRE=misc
DID3=13
TTITLE0=Blondie / Atomic
TTITLE1=Afrika Bambaataa Feat. UB40 / Reckless
TTITLE2=T'Pau / Heart And Soul
TTITLE3=John Waite / Missing You
TTITLE4=Broken English / Comin' On Strong
TTITLE5=Glass Tiger / Don't Forget Me
TTITLE6=Amazulu / Mony Mony
TTITLE7=Sly Fox / Let's Go All The Way
TTITLE8=Fern Kinney / Together We Are Beautiful
TTITLE9=Look / I Am The Beat
TTITLE10=Eddy Grant / Gimme Hope Jo'anna
TTITLE11=Brother Beyon / The Harder I Try
TTITLE12=Thomas Dolby / Hyperactive!
TTITLE13=Culture Club / Victims
TTITLE14=Heaven 17 / Temptation
TTITLE15=Kim Wilde / Chequered Love
TTITLE16=Mel & Kim  / Respectable
TTITLE17=David Austin / Turn To Gold
EXTD=YEAR: 1998
EXTT0=YEAR: 1979
EXTT1=YEAR: 1988
EXTT2=YEAR: 1987
EXTT3=YEAR: 1984
EXTT4=YEAR: 1987
EXTT5=YEAR: 1986
EXTT6=YEAR: 1987
EXTT7=YEAR: 1985
EXTT8=YEAR: 1980
EXTT9=YEAR: 1980
EXTT10=YEAR: 1988
EXTT11=YEAR: 1988
EXTT12=YEAR: 1983
EXTT13=YEAR: 1983
EXTT14=YEAR: 1983
EXTT15=YEAR: 1981
EXTT16=YEAR: 1987
EXTT17=YEAR: 1984
PLAYORDER=