Last change 2020.03.01 14:20:52 / Time 2020.09.24 09:05:31

Music Database

My complete CD collection digitalized using differnent Linux tools in connection with remote CDDB databases.
These web pages give overview of content according to CDDB info.

cddb/0d10eb14.txt

# xmcd CD database file generated by Grip 3.3.1
# 
# Track frame offsets:
#       183
#       13440
#       28348
#       43903
#       58955
#       75448
#       91373
#       108208
#       120963
#       135040
#       151350
#       167210
#       183005
#       203453
#       221628
#       238548
#       256410
#       270470
#       289678
#       305543
# 
# Disc length: 4333 seconds
# 
# Revision: 3
# Submitted via: Grip 3.3.1
# 
DISCID=0d10eb14
DTITLE=Olivia Newton-John / Back To Basics
DYEAR=1992
DGENRE=rock
DID3=13
TTITLE0=If Not For You
TTITLE1=Banks Of The Ohio
TTITLE2=What Is Life
TTITLE3=Take Me Home Country Roads
TTITLE4=I Honestly Love You
TTITLE5=Have You Never Been Mellow
TTITLE6=Sam
TTITLE7=You're The One That I Want
TTITLE8=Hopelessly Devoted To You
TTITLE9=Summer Nights
TTITLE10=A Little More Love
TTITLE11=Xanadu
TTITLE12=Magic
TTITLE13=Suddenly
TTITLE14=Physical
TTITLE15=The Rumour
TTITLE16=Not Gonna Be The One
TTITLE17=I Need Love
TTITLE18=I Want To Be Wanted
TTITLE19=Deeper Than A River
EXTD=
EXTT0=
EXTT1=
EXTT2=
EXTT3=
EXTT4=
EXTT5=
EXTT6=
EXTT7=
EXTT8=
EXTT9=
EXTT10=
EXTT11=
EXTT12=
EXTT13=
EXTT14=
EXTT15=
EXTT16=
EXTT17=
EXTT18=
EXTT19=
PLAYORDER=