Last change 2020.03.01 14:20:52 / Time 2020.09.25 03:47:55

Music Database

My complete CD collection digitalized using differnent Linux tools in connection with remote CDDB databases.
These web pages give overview of content according to CDDB info.

cddb/0c120812.txt

# xmcd CD database file generated by Grip 3.2.0
# 
# Track frame offsets:
#       150
#       25051
#       42472
#       56586
#       75809
#       116045
#       134029
#       153038
#       168440
#       184532
#       208763
#       228626
#       247055
#       265257
#       282136
#       297747
#       313158
#       329422
# 
# Disc length: 4618 seconds
# 
# Revision: 24
# Submitted via: Grip 3.2.0
# 
DISCID=0c120812
DTITLE=Various Artists / 80's - CD2
DYEAR=1998
DGENRE=misc
DID3=13
TTITLE0=Spandau Ballet / True
TTITLE1=Blondie / The Tide Is High
TTITLE2=Renee & Renato / Save Your Love
TTITLE3=Laid Back / Sunshine Reggae
TTITLE4=Gazebo / I Like Chopin
TTITLE5=Culture Club / Karma Chameleon
TTITLE6=P.I.L. / This Is Not A Love Song
TTITLE7=Flying Pickets / Only You
TTITLE8=Firm / Star Trekkin'
TTITLE9=Pat Benatar / Love Is A Battlefield
TTITLE10=Duran Duran / The Reflex
TTITLE11=Ultravox / Dancing With Tears In My Eyes
TTITLE12=Proclaimers / Letter From America
TTITLE13=Samantha Fox / Nothing's Gonna Stop Me Now
TTITLE14=Centerfold / Dictator
TTITLE15=Aled Jones / Walking In The Air
TTITLE16=Billy Idol / Hot In The City
TTITLE17=Eddy Grant / Electric Avenue
EXTD=
EXTT0=
EXTT1=
EXTT2=
EXTT3=
EXTT4=
EXTT5=
EXTT6=
EXTT7=
EXTT8=
EXTT9=
EXTT10=
EXTT11=
EXTT12=
EXTT13=
EXTT14=
EXTT15=
EXTT16=
EXTT17=
PLAYORDER=