Last change 2020.03.01 14:20:52 / Time 2020.09.25 04:43:35

Music Database

My complete CD collection digitalized using differnent Linux tools in connection with remote CDDB databases.
These web pages give overview of content according to CDDB info.

cddb/0b12ab12.txt

# xmcd CD database file generated by Grip 3.2.0
# 
# Track frame offsets:
#       150
#       18939
#       41845
#       57304
#       75555
#       95628
#       114714
#       130463
#       155690
#       174045
#       200418
#       223015
#       250299
#       266920
#       283749
#       299360
#       316566
#       333224
# 
# Disc length: 4781 seconds
# 
# Revision: 19
# Submitted via: Grip 3.2.0
# 
DISCID=0b12ab12
DTITLE=Various Artists / 80's - CD5
DYEAR=1998
DGENRE=misc
DID3=13
TTITLE0=Mel & Kim / Showing Out (Get Fresh At The Weekend)
TTITLE1=B.V.S.M.P. / I Need You
TTITLE2=Baltimora / Tarzan Boy
TTITLE3=Bruce & Bongo / Geil
TTITLE4=MC Miker G. & DJ Sven / Holiday Rap
TTITLE5=George Baker Selection / Santa Lucia By Night
TTITLE6=Sydney Youngblood / If Only I Could
TTITLE7=Jellybean / The Real Thing
TTITLE8=Adeva / Respect
TTITLE9=FPI Project / Rich In Paradise
TTITLE10=Scotch / Disco Band
TTITLE11=King MC / What Have I Done For You Lately
TTITLE12=Nu Shooz / I Can't Wait
TTITLE13=Culture Club / Time (Clock Of The Heart)
TTITLE14=Dexy's Midnight Runners / Geno
TTITLE15=David Grant & Jaki Graham / Mated
TTITLE16=Go West / We Close Our Eyes
TTITLE17=Fun Fun / Hit Mix
EXTD=YEAR: 1998
EXTT0=YEAR: 1986
EXTT1=YEAR: 1988
EXTT2=YEAR: 1985
EXTT3=YEAR: 1986
EXTT4=YEAR: 1986
EXTT5=YEAR: 1985
EXTT6=YEAR: 1989
EXTT7=YEAR: 1987
EXTT8=YEAR: 1989
EXTT9=YEAR: 1989
EXTT10=YEAR: 1985
EXTT11=YEAR: 1986
EXTT12=YEAR: 1986
EXTT13=YEAR: 1982
EXTT14=YEAR: 1980
EXTT15=YEAR: 1986
EXTT16=YEAR: 1985
EXTT17=YEAR: 1988\n\nHappy Station\nColor My Love\nBaila Bolero\nGive Me Your
EXTT17=Love\n
PLAYORDER=