Last change 2020.03.01 14:20:52 / Time 2021.10.22 10:18:20

Music Database

My complete CD collection digitalized using differnent Linux tools in connection with remote CDDB databases.
These web pages give overview of content according to CDDB info.

cddb/0b0f4613.txt

# xmcd CD database file generated by Grip 3.3.1
# 
# Track frame offsets:
#       150
#       14082
#       35622
#       52175
#       70310
#       87882
#       106695
#       122600
#       142622
#       154612
#       168770
#       182695
#       196035
#       208165
#       219650
#       236532
#       249867
#       267190
#       284125
# 
# Disc length: 3912 seconds
# 
# Revision: 3
# Submitted via: Grip 3.3.1
# 
DISCID=0b0f4613
DTITLE=Various / The Ultimate Christmas Collection CD2
DYEAR=1998
DGENRE=misc
DID3=12
TTITLE0=Bing Crosby / White Christmas
TTITLE1=Cliff Richard / Saviour's Day
TTITLE2=Johnny Mathis / When A Child Is Born
TTITLE3=Chris De Burgh / A Spaceman Came Travelling
TTITLE4=Michael Ball / Driving Home For Christmas
TTITLE5=David Essex / A Winter's Tale
TTITLE6=Elton John & Kiki Dee / True Love
TTITLE7=Vanessa Williams / Have Yourself A Merry Little Christmas
TTITLE8=Diana Ross & The Supremes / Santa Claus Is Coming To Town
TTITLE9=Michael Jackson With The Jackson Five / The Little Drummer Boy
TTITLE10=Smokey Robinson & The Miracles / God Rest Ye Merry Gentlemen
TTITLE11=The Temptations / Rudolph The Red-Nosed Reindeer
TTITLE12=James Brown / The Christmas Song
TTITLE13=Boyz II Men / Silent Night
TTITLE14=Dina Carroll / The Perfect Year
TTITLE15=Amy Grant / O' Come All Ye Faithful
TTITLE16=Hank Marvin & The Shadows / Walking In The Air
TTITLE17=Free The Spirit / Wonderful Christmastime
TTITLE18=Gheorghe Zamfir / Jingle Bells
EXTD= YEAR: 1998
EXTT0=
EXTT1=
EXTT2=
EXTT3=
EXTT4=
EXTT5=
EXTT6=
EXTT7=
EXTT8=
EXTT9=
EXTT10=
EXTT11=
EXTT12=
EXTT13=
EXTT14=
EXTT15=
EXTT16=
EXTT17=
EXTT18=
PLAYORDER=