Last change 2020.03.01 14:20:52 / Time 2021.10.22 08:56:54

Music Database

My complete CD collection digitalized using differnent Linux tools in connection with remote CDDB databases.
These web pages give overview of content according to CDDB info.

cddb/0a10ed14.txt

# xmcd CD database file generated by Grip 3.0.7
# 
# Track frame offsets:
#       150
#       9977
#       23595
#       34372
#       49015
#       63732
#       77837
#       95162
#       107852
#       123527
#       137550
#       151575
#       168377
#       188451
#       209954
#       228260
#       242950
#       264185
#       280040
#       302332
# 
# Disc length: 4335 seconds
# 
# Revision: 4
# Submitted via: Grip 3.0.7
# 
DISCID=0a10ed14
DTITLE=Bee Gees / The Very Best Of The
DYEAR=1996
DGENRE=misc
DID3=12
TTITLE0=New York Mining Disaster 1941
TTITLE1=To Love Somebody
TTITLE2=Massachusetts
TTITLE3=World
TTITLE4=Words
TTITLE5=I've Gotta Get A Message To You
TTITLE6=Melody Fair
TTITLE7=First Of May
TTITLE8=Don't Forget To Remember
TTITLE9=Saved By The Bell
TTITLE10=Run To Me
TTITLE11=Jive Talkin'
TTITLE12=Nights On Broadway
TTITLE13=You Should Be Dancing
TTITLE14=How Deep Is Your Love
TTITLE15=More Than A Woman
TTITLE16=Stayin' Alive
TTITLE17=Night Fever
TTITLE18=Too Much Heaven
TTITLE19=Tragedy
EXTD=
EXTT0=
EXTT1=
EXTT2=
EXTT3=
EXTT4=
EXTT5=
EXTT6=
EXTT7=
EXTT8=
EXTT9=
EXTT10=
EXTT11=
EXTT12=
EXTT13=
EXTT14=
EXTT15=
EXTT16=
EXTT17=
EXTT18=
EXTT19=
PLAYORDER=