Last change 2020.03.01 14:20:52 / Time 2020.09.24 07:25:07

Music Database

My complete CD collection digitalized using differnent Linux tools in connection with remote CDDB databases.
These web pages give overview of content according to CDDB info.

cddb/09120a13.txt

# xmcd CD database file generated by Grip 3.3.1
# 
# Track frame offsets:
#       183
#       17708
#       38183
#       57178
#       71393
#       88225
#       102643
#       121428
#       140313
#       159575
#       177113
#       192490
#       207803
#       227340
#       247933
#       271050
#       290368
#       304973
#       323115
# 
# Disc length: 4620 seconds
# 
# Revision: 4
# Submitted via: Grip 3.3.1
# 
DISCID=09120a13
DTITLE=Various / Disco Dance Classics CD2
DYEAR=1995
DGENRE=misc
DID3=4
TTITLE0=Stretch / Why Did You Do It
TTITLE1=Positive Force / We've Got The Funk
TTITLE2=Weeks & Company / Rock Your World
TTITLE3=Patrick Hernandez / Born To Be Alive
TTITLE4=Loletta Holloway / Love Sensation
TTITLE5=Vogue / Dancing The Night Away
TTITLE6=Indeep / Last Night The D.j. Saved My Life
TTITLE7=Patrick Cowley & Sylvester / Do You Wanna Funk
TTITLE8=Gino Soccio / Try It Out
TTITLE9=Amii Stewart / Light My Fire
TTITLE10=John Paul Young / Love Is In The Air
TTITLE11=F-R David / Words
TTITLE12=Viola Wills / If You Could Read My Mind
TTITLE13=First Choice / Let No Man Put Us Under
TTITLE14=Chemise / She Can't Love You
TTITLE15=Hi Gloss / You'll Never Know
TTITLE16=George McCrae / Rock Your Baby
TTITLE17=Love Unlimited / High Steppin' Hip Dressin' Fella
TTITLE18=Bohannon / Let's Start Ii Dance Again
EXTD= YEAR: 1995
EXTT0=
EXTT1=
EXTT2=
EXTT3=
EXTT4=
EXTT5=
EXTT6=
EXTT7=
EXTT8=
EXTT9=
EXTT10=
EXTT11=
EXTT12=
EXTT13=
EXTT14=
EXTT15=
EXTT16=
EXTT17=
EXTT18=
PLAYORDER=